<?xml version="1.0" standalone="no"?>
<!DOCTYPE svg PUBLIC "-//W3C//DTD SVG 1.1//EN" "http://www.w3.org/Graphics/SVG/1.1/DTD/svg11.dtd">
<svg xmlns="http://www.w3.org/2000/svg">
<defs >
<font id="Chivo" horiz-adv-x="547" ><font-face
    font-family="Chivo"
    units-per-em="1000"
    panose-1="0 0 5 0 0 0 0 0 0 0"
    ascent="940"
    descent="-250"
    alphabetic="0" />
<glyph unicode=" " glyph-name="space" horiz-adv-x="244" />
<glyph unicode="!" glyph-name="exclam" horiz-adv-x="269" d="M191 669T168 174H78V686H193Q191 669 168 174ZM186 111V0H85V111H186Z" />
<glyph unicode="&quot;" glyph-name="quotedbl" horiz-adv-x="364" d="M146 686V539L125 407H86L64 539V686H146ZM300 539L293 497L278 407H239L218 539V686H300V539Z" />
<glyph unicode="#" glyph-name="numbersign" horiz-adv-x="643" d="M555 696L508 486H613V410H491L457 255H573V179H440L400 0H324L364 179H214L174 0H98L138 179H28V255H155L189 410H68V486H206L253 696H329L282 486H432L479 696H555ZM415 410H265L231 255H381L415 410Z" />
<glyph unicode="$" glyph-name="dollar" horiz-adv-x="546" d="M296 671Q389 666 443 621T498 495V483H403V497Q403 540 368 563T274 586Q215 586 178 566T141 505Q141 475 161 457T211 427T295 401Q365 383 408 365T483 311T514 216Q514 124 459 74T296 19L307
-66H234L244 20Q140 27 86 74T31 209L32 227H127L126 208Q126 157 164 131T268 105Q420 105 420 202Q420 234 399 254T346 286T259 313Q190 332 148 349T76 400T46 490Q46 578 99 621T245 671L234 760H307L296 671Z" />
<glyph unicode="%" glyph-name="percent" horiz-adv-x="699" d="M593 686L177 0H107L525 686H593ZM211 685T245 651T279 564V457Q279 405 245 371T158 336H151Q99 336 65 370T30 457V564Q30 616 64 650T151 685H158Q211 685 245 651ZM127 630T111 614T94 571V450Q94
424 110 408T155 391Q183 391 199 407T215 450V571Q215 597 199 613T155 630Q127 630 111 614ZM600 348T634 314T669 227V120Q669 68 635 34T548 -1H541Q488 -1 454 33T420 120V227Q420 279 454 313T541 348H548Q600 348 634 314ZM517 293T501 277T484 234V113Q484
87 500 71T545 54Q573 54 589 70T605 113V234Q605 260 589 276T545 293Q517 293 501 277Z" />
<glyph unicode="&amp;" glyph-name="ampersand" horiz-adv-x="662" d="M330 696T361 689V598Q333 607 305 607Q244 607 208 580T171 503Q171 456 209 426T306 395H429L457 538H525V395H633V306H525V0H300Q191 0 125 50T58 193Q58 317 184 354L187 356Q135 379
105 415T74 501Q74 567 106 611T187 675T291 696Q330 696 361 689ZM313 306Q237 306 197 279T156 198Q156 145 197 117T314 89H427V306H313Z" />
<glyph unicode="&apos;" glyph-name="quotesingle" horiz-adv-x="210" d="M146 686V539L124 407H85L64 539V686H146Z" />
<glyph unicode="(" glyph-name="parenleft" horiz-adv-x="289" d="M199 591T165 482T131 265Q131 157 165 50T260 -157H208Q131 -69 90 39T49 264Q49 381 90 489T208 686H260Q199 591 165 482Z" />
<glyph unicode=")" glyph-name="parenright" horiz-adv-x="288" d="M158 598T199 490T240 265Q240 148 199 40T81 -157H29Q89 -62 123 47T157 265Q157 371 123 481T29 686H81Q158 598 199 490Z" />
<glyph unicode="*" glyph-name="asterisk" horiz-adv-x="468" d="M275 686L259 519L417 584L440 506L275 468L384 343L320 294L232 438L145 296L81 344L192 469L29 509L54 586L209 520L196 686H275Z" />
<glyph unicode="+" glyph-name="plus" horiz-adv-x="615" d="M348 511V297H563V213H348V0H265V213H51V297H265V511H348Z" />
<glyph unicode="," glyph-name="comma" horiz-adv-x="238" d="M170 111V26L135 -124H83L110 0H69V111H170Z" />
<glyph unicode="-" glyph-name="hyphen" horiz-adv-x="391" d="M322 319V221H69V319H322Z" />
<glyph unicode="." glyph-name="period" horiz-adv-x="239" d="M170 111V0H69V111H170Z" />
<glyph unicode="/" glyph-name="slash" horiz-adv-x="600" d="M585 686L96 -171H15L505 686H585Z" />
<glyph unicode="0" glyph-name="zero" horiz-adv-x="615" d="M376 696T428 666T512 583T543 464V221Q543 156 513 104T431 21T313 -10H300Q234 -10 182 20T100 104T71 221V464Q71 531 101 584T184 666T300 696H313Q376 696 428 666ZM249 607T209 569T169 472V214Q169
156 209 118T307 79Q367 79 406 118T445 214V472Q445 529 406 568T307 607Q249 607 209 569Z" />
<glyph unicode="1" glyph-name="one" horiz-adv-x="615" d="M377 89H557V0H99V89H279V555H97V619Q216 631 339 686H377V89Z" />
<glyph unicode="2" glyph-name="two" horiz-adv-x="615" d="M388 696T438 667T513 592T538 495Q538 423 509 377T416 282L225 136Q202 120 190 108T177 89H541V0H70V24Q70 75 94 121T163 201L362 351Q404 385 422 418T440 491Q440 521 425 547T381 590T311 607Q269
607 237 589T186 541T168 475V461Q168 453 169 449H71L70 459V467Q70 525 96 577T177 663T316 696Q388 696 438 667Z" />
<glyph unicode="3" glyph-name="three" horiz-adv-x="615" d="M373 696T424 672T503 606T531 510Q531 453 503 417T422 356L423 353Q480 335 513 293T547 184Q547 128 516 84T430 15T308 -10H296Q187 -10 123 44T58 194V202H156V191Q156 136 193 108T299 79Q370
79 409 107T449 194Q449 304 295 304H220V394H297Q358 394 395 422T433 502Q433 553 397 580T299 607Q242 607 207 579T172 501V492H74V510Q74 565 103 607T184 673T299 696H308Q373 696 424 672Z" />
<glyph unicode="4" glyph-name="four" horiz-adv-x="615" d="M340 596T270 461T143 258H373V457Q407 524 427 594H471V258H558V169H471V0H373V169H50V259Q186 463 263 696H368Q340 596 270 461Z" />
<glyph unicode="5" glyph-name="five" horiz-adv-x="615" d="M509 597H205L190 396Q255 447 320 447Q435 447 490 385T545 222Q545 154 516 102T433 20T308 -10Q241 -10 187 19T103 99T71 214H169Q171 156 210 118T308 79Q370 79 408 118T447 225Q447 285 408
324T312 363Q227 363 183 294L95 307L123 686H509V597Z" />
<glyph unicode="6" glyph-name="six" horiz-adv-x="615" d="M377 696T429 668T511 590T541 473H443Q443 535 407 571T310 607Q274 607 244 589T195 541T177 474V366Q239 432 332 432Q392 432 442 404T522 328T552 221Q552 153 522 101T438 19T316 -10Q248 -10
194 19T110 102T79 223V465Q79 527 110 580T194 665T310 696Q377 696 429 668ZM257 343T217 306T177 211Q177 154 217 117T316 79Q375 79 414 115T454 211Q454 270 415 306T316 343Q257 343 217 306Z" />
<glyph unicode="7" glyph-name="seven" horiz-adv-x="615" d="M555 633Q431 487 362 338T292 51V28L294 0H180Q180 284 430 597H73V686H555V633Z" />
<glyph unicode="8" glyph-name="eight" horiz-adv-x="615" d="M405 696T464 644T524 505Q524 451 502 417T431 354V350Q488 324 517 286T547 185Q547 93 485 42T307 -10Q197 -10 132 41T67 185Q67 248 97 287T183 350V354Q128 388 109 421T90 499Q90 595 150 645T307
696Q405 696 464 644ZM253 607T221 577T188 501Q188 455 220 425T307 395Q361 395 393 425T426 501Q426 547 394 577T307 607Q253 607 221 577ZM209 306T176 242Q165 218 165 192Q165 136 205 108T307 79Q370 79 409 108T449 192Q449 245 411 275T307 306Q209 306
176 242Z" />
<glyph unicode="9" glyph-name="nine" horiz-adv-x="615" d="M368 696T421 666T505 583T536 463V221Q536 159 505 106T421 21T305 -10Q237 -10 185 18T103 97T74 213H172Q172 151 208 115T305 79Q341 79 371 97T420 145T438 212V320Q377 254 283 254Q223 254 173
282T93 358T63 465Q63 533 93 585T176 667T299 696Q368 696 421 666ZM240 607T201 571T161 475Q161 416 200 380T299 343Q358 343 398 380T438 475Q438 533 398 570T299 607Q240 607 201 571Z" />
<glyph unicode=":" glyph-name="colon" horiz-adv-x="239" d="M170 511V399H69V511H170ZM170 111V0H69V111H170Z" />
<glyph unicode=";" glyph-name="semicolon" horiz-adv-x="239" d="M170 511V399H69V511H170ZM170 111V26L135 -124H83L110 0H69V111H170Z" />
<glyph unicode="&lt;" glyph-name="less" horiz-adv-x="615" d="M553 504V414L124 254L553 94V4L44 200V307L553 504Z" />
<glyph unicode="=" glyph-name="equal" horiz-adv-x="615" d="M559 402V318H55V402H559ZM559 189V106H55V189H559Z" />
<glyph unicode="&gt;" glyph-name="greater" horiz-adv-x="615" d="M571 307V200L62 4V94Q73 98 86 103T114 113L490 254L82 406L62 414V504L571 307Z" />
<glyph unicode="?" glyph-name="question" horiz-adv-x="502" d="M319 696T366 668T438 592T462 492Q462 435 437 399T367 323Q336 295 322 276T307 234V185H207V249Q207 283 227 310T286 375Q325 413 344 439T363 498Q363 545 329 576T245 607Q190 607 158 576T125
495L127 458H29Q26 470 26 496Q26 544 52 590T128 666T246 696H252Q319 696 366 668ZM309 111V0H205V111H309Z" />
<glyph unicode="@" glyph-name="at" horiz-adv-x="885" d="M646 697T750 603T855 328Q855 218 828 150T759 52T668 22Q618 22 594 43T567 109L564 106Q509 22 398 22Q319 22 280 56T241 164Q241 223 271 256T371 305T562 320V364Q562 411 534 431T452 451Q402
451 374 431T345 375V364H259Q257 378 257 395Q257 426 281 455T351 503T454 521H463Q557 521 604 483T651 374V129Q651 91 688 91Q740 91 768 150T796 330Q796 480 708 561T458 642Q285 642 191 545T97 266Q97 80 176 -9T424 -98Q471 -98 522 -87T589 -66V-126Q552
-141 502 -147T424 -153Q234 -153 136 -48T38 268Q38 410 90 506T238 649T459 697Q646 697 750 603ZM464 251T414 241T347 212T329 158Q329 92 428 92Q485 92 523 132T562 233V251Q464 251 414 241Z" />
<glyph unicode="A" glyph-name="A" horiz-adv-x="652" d="M380 686L648 0H542L484 149H156L99 0H4L272 686H380ZM324 568H318L191 238H450L324 568Z" />
<glyph unicode="B" glyph-name="B" horiz-adv-x="651" d="M445 686T486 664T551 603T576 518Q576 457 546 416T456 358V353Q515 344 553 300T592 187Q592 132 566 90T495 24T402 0H92V686H396Q445 686 486 664ZM190 597V394H376Q416 394 447 423T478 495Q478 537
448 567T376 597H190ZM190 305V89H386Q431 89 462 120T494 197Q494 242 463 273T386 305H190Z" />
<glyph unicode="C" glyph-name="C" horiz-adv-x="663" d="M424 696T484 663T576 569T609 423H511Q511 510 468 558T344 607Q254 607 207 552T160 388V298Q160 191 206 135T342 79Q426 79 470 127T515 261H609Q609 178 577 117T484 23T344 -10Q211 -10 137 71T62
298V388Q62 532 136 614T344 696Q424 696 484 663Z" />
<glyph unicode="D" glyph-name="D" horiz-adv-x="675" d="M416 686T480 649T579 542T614 378V308Q614 214 579 145T480 38T330 0H92V686H330Q416 686 480 649ZM190 597V89H330Q419 89 467 144T516 308V378Q516 484 469 540T330 597H190Z" />
<glyph unicode="E" glyph-name="E" horiz-adv-x="593" d="M542 686L529 597H190V395H497V306H190V89H535L549 0H92V686H542Z" />
<glyph unicode="F" glyph-name="F" horiz-adv-x="550" d="M524 686L511 597H190V388H470V299H190V0H92V686H524Z" />
<glyph unicode="G" glyph-name="G" horiz-adv-x="677" d="M424 696T483 665T575 577T607 445H509Q509 522 467 564T344 607Q254 607 207 552T160 388V298Q160 190 206 135T344 79Q431 79 471 122T511 261V274H317V362H607V128Q607 45 613 0H555Q542 41 535 82Q470
-10 344 -10Q211 -10 137 71T62 298V388Q62 532 136 614T344 696Q424 696 483 665Z" />
<glyph unicode="H" glyph-name="H" horiz-adv-x="693" d="M601 686V0H503V306H190V0H92V686H190V395H503V686H601Z" />
<glyph unicode="I" glyph-name="I" horiz-adv-x="364" d="M311 686V597H231V89H311V0H53V89H133V597H53V686H311Z" />
<glyph unicode="J" glyph-name="J" horiz-adv-x="526" d="M439 187Q439 96 383 43T236 -10H227Q136 -10 83 41T29 187V208H127V181Q127 136 157 108T235 79Q282 79 311 107T341 181V686H439V187Z" />
<glyph unicode="K" glyph-name="K" horiz-adv-x="623" d="M601 686L349 383L609 0H495L287 308L190 206V0H92V686H190V329L488 686H601Z" />
<glyph unicode="L" glyph-name="L" horiz-adv-x="536" d="M190 686V89H505L519 0H92V686H190Z" />
<glyph unicode="M" glyph-name="M" horiz-adv-x="938" d="M846 686V0H748V571H742L505 0H422L186 571H181V0H92V686H246L467 146H471L693 686H846Z" />
<glyph unicode="N" glyph-name="N" horiz-adv-x="694" d="M602 686V0H519L184 502L181 501V0H92V686H178L510 190L513 191V686H602Z" />
<glyph unicode="O" glyph-name="O" horiz-adv-x="690" d="M430 696T494 659T593 553T629 388V298Q629 203 594 134T494 27T345 -10Q260 -10 196 27T97 133T61 298V388Q61 483 96 552T196 659T345 696Q430 696 494 659ZM257 607T208 551T159 388V298Q159 191 206
135T345 79Q433 79 482 134T531 298V388Q531 495 484 551T345 607Q257 607 208 551Z" />
<glyph unicode="P" glyph-name="P" horiz-adv-x="624" d="M446 686T493 660T566 589T593 486Q593 429 567 384T493 312T388 286H190V0H92V686H388Q446 686 493 660ZM190 597V375H379Q426 375 460 407T495 486Q495 533 461 565T379 597H190Z" />
<glyph unicode="Q" glyph-name="Q" horiz-adv-x="690" d="M430 696T494 659T593 553T629 388V298Q629 173 569 93T402 -5Q411 -39 437 -54T501 -70Q546 -70 606 -46L618 -42V-112Q560 -145 499 -145Q401 -145 359 -108T305 -8Q189 6 125 86T61 298V388Q61 483
96 552T196 659T345 696Q430 696 494 659ZM257 607T208 551T159 388V298Q159 191 206 135T345 79Q433 79 482 134T531 298V388Q531 495 484 551T345 607Q257 607 208 551Z" />
<glyph unicode="R" glyph-name="R" horiz-adv-x="670" d="M475 686T533 643T592 525Q592 458 557 411T469 354V349Q517 330 548 283T579 170Q579 115 585 87T601 48T630 31V3Q608 -6 583 -6Q535 -6 508 22T481 130Q481 211 448 256T364 302H190V0H92V686H384Q475
686 533 643ZM190 597V391H385Q428 391 461 420T494 492V496Q494 540 464 568T385 597H190Z" />
<glyph unicode="S" glyph-name="S" horiz-adv-x="627" d="M427 696T491 646T556 504V492H458V507Q458 555 419 581T316 607Q245 607 206 584T166 516Q166 483 188 462T244 429T337 402Q413 382 460 363T540 306T574 205Q574 93 506 42T313 -10Q189 -10 121 42T52
195L53 215H151L150 194Q150 136 193 108T314 79Q389 79 432 106T476 182Q476 220 453 243T394 280T297 309Q222 329 177 347T100 402T68 501Q68 600 135 648T314 696Q427 696 491 646Z" />
<glyph unicode="T" glyph-name="T" horiz-adv-x="578" d="M553 686V597H338V0H240V597H25V686H553Z" />
<glyph unicode="U" glyph-name="U" horiz-adv-x="680" d="M594 219Q594 151 564 99T477 19T346 -10H333Q259 -10 204 18T117 98T86 219V686H184V221Q184 157 228 118T342 79Q413 79 454 118T496 221V686H594V219Z" />
<glyph unicode="V" glyph-name="V" horiz-adv-x="603" d="M598 686L354 0H249L5 686H110L303 133H309L503 686H598Z" />
<glyph unicode="W" glyph-name="W" horiz-adv-x="916" d="M903 686L702 0H602L462 496H455L310 0H210L14 686H119L264 169H270L416 686H511L656 169H662L808 686H903Z" />
<glyph unicode="X" glyph-name="X" horiz-adv-x="631" d="M372 361L621 0H503L313 276L118 0H9L259 355L32 685H150L318 440Q373 517 435 607L476 665L490 685H599L372 361Z" />
<glyph unicode="Y" glyph-name="Y" horiz-adv-x="572" d="M576 686L335 265V0H237V265L-5 686H107L290 367H294L475 686H576Z" />
<glyph unicode="Z" glyph-name="Z" horiz-adv-x="596" d="M547 686V648L181 89H555V0H32V38L397 597H56V686H547Z" />
<glyph unicode="[" glyph-name="bracketleft" horiz-adv-x="293" d="M254 686V631H166V-106H254V-161H85V686H254Z" />
<glyph unicode="\" glyph-name="backslash" horiz-adv-x="600" d="M95 686L585 -171H504L15 686H95Z" />
<glyph unicode="]" glyph-name="bracketright" horiz-adv-x="293" d="M208 686V-161H39V-106H127V631H39V686H208Z" />
<glyph unicode="^" glyph-name="asciicircum" horiz-adv-x="596" d="M546 0H462L322 358Q316 374 310 390T298 421L133 0H49L246 511H349L546 0Z" />
<glyph unicode="_" glyph-name="underscore" horiz-adv-x="694" d="M597 -64V-124H97V-64H597Z" />
<glyph unicode="`" glyph-name="grave" horiz-adv-x="333" d="M158 720L253 575H183L68 717L69 720H158Z" />
<glyph unicode="a" glyph-name="a" horiz-adv-x="585" d="M385 521T434 481T484 365V100Q484 82 492 74T512 65Q535 65 558 79V10Q524 -10 481 -10Q438 -10 417 14T394 82Q332 -10 215 -10Q131 -10 90 26T48 142Q48 204 80 239T186 291T390 307V354Q390 405 360
425T273 446Q219 446 189 425T159 366V354H67Q65 368 65 387Q65 422 93 453T169 502T275 521H284Q385 521 434 481ZM285 234T232 224T160 192T142 134Q142 65 247 65Q284 65 317 83T370 136T390 214V234Q285 234 232 224Z" />
<glyph unicode="b" glyph-name="b" horiz-adv-x="583" d="M177 446Q200 479 239 500T325 521Q423 521 477 453T531 267V256Q531 132 476 61T324 -10Q210 -10 152 81L119 0H83V720H177V446ZM239 446T208 400T176 255Q176 157 208 111T306 65Q437 65 437 255Q437
353 404 399T306 446Q239 446 208 400Z" />
<glyph unicode="c" glyph-name="c" horiz-adv-x="544" d="M344 521T392 495T468 420T495 310H402Q402 372 371 409T280 446Q218 446 182 405T145 291V237Q145 150 181 108T283 65Q344 65 374 101T405 200H495Q495 104 438 47T284 -10H276Q208 -10 157 21T79 110T51
243V267Q51 343 79 400T158 489T275 521H283Q344 521 392 495Z" />
<glyph unicode="d" glyph-name="d" horiz-adv-x="583" d="M500 0H430Q423 32 417 70Q360 -10 259 -10Q163 -10 108 61T52 256V267Q52 384 106 452T259 521Q354 521 406 446V720H500V0ZM209 446T178 400T146 255Q146 157 178 111T276 65Q407 65 407 255Q407 353
374 399T276 446Q209 446 178 400Z" />
<glyph unicode="e" glyph-name="e" horiz-adv-x="556" d="M351 521T399 495T475 419T502 305V234H145Q147 153 183 109T290 65Q353 65 383 102T413 190H502Q502 130 475 85T399 15T288 -10H284Q176 -10 114 59T51 245V265Q51 341 79 399T159 489T281 521H288Q351
521 399 495ZM226 446T191 411T147 307H409V319Q409 376 375 411T283 446Q226 446 191 411Z" />
<glyph unicode="f" glyph-name="f" horiz-adv-x="338" d="M279 728T316 709V640Q286 653 265 653Q225 653 211 639T197 590V511H316V436H197V0H103V436H47V511H103V580Q103 728 222 728Q279 728 316 709Z" />
<glyph unicode="g" glyph-name="g" horiz-adv-x="568" d="M551 552T524 518T449 473L447 470Q497 426 497 360Q497 288 443 244T296 200H228Q198 200 178 185T158 145Q158 121 177 107T228 93H421Q480 93 515 56T551 -38Q551 -106 500 -147T361 -188H160Q126 -188
98 -170T53 -125T36 -68Q36 -26 56 5T111 51Q65 79 65 134Q65 170 86 196T145 235Q78 272 78 360Q78 434 132 477T284 521H288Q344 521 390 504Q461 539 471 603H551Q551 552 524 518ZM234 446T203 426T171 360Q171 315 202 295T287 275Q340 275 372 295T404 360Q404
405 372 425T287 446Q234 446 203 426ZM187 3Q163 3 146 -14T129 -55Q129 -79 146 -96T187 -113H380Q412 -113 435 -95T458 -52Q458 -27 441 -12T393 3H187Z" />
<glyph unicode="h" glyph-name="h" horiz-adv-x="593" d="M177 447Q240 521 335 521Q419 521 467 476T515 344V0H421V327Q421 446 313 446Q277 446 246 427T196 376T177 304V0H83V720H177V447Z" />
<glyph unicode="i" glyph-name="i" horiz-adv-x="260" d="M179 720V633H81V720H179ZM177 511V0H83V511H177Z" />
<glyph unicode="j" glyph-name="j" horiz-adv-x="260" d="M179 720V633H81V720H179ZM177 -15Q177 -106 149 -146T52 -186Q0 -186 -34 -167V-97Q-1 -112 18 -112Q55 -112 69 -97T83 -44V511H177V-15Z" />
<glyph unicode="k" glyph-name="k" horiz-adv-x="535" d="M177 720V226L405 511H508L311 263L521 0H407L254 190L177 110V0H83V720H177Z" />
<glyph unicode="l" glyph-name="l" horiz-adv-x="268" d="M181 720V0H87V720H181Z" />
<glyph unicode="m" glyph-name="m" horiz-adv-x="867" d="M701 521T745 475T789 344V0H695V327Q695 446 603 446Q571 446 544 427T500 376T483 304V0H389V327Q389 446 297 446Q265 446 238 427T194 376T177 304V0H83V511H151L164 436Q222 521 325 521Q426 521
465 436Q499 484 538 502T622 521Q701 521 745 475Z" />
<glyph unicode="n" glyph-name="n" horiz-adv-x="593" d="M419 521T467 476T515 344V0H421V327Q421 446 313 446Q277 446 246 427T196 376T177 304V0H83V511H151L164 436Q228 521 335 521Q419 521 467 476Z" />
<glyph unicode="o" glyph-name="o" horiz-adv-x="574" d="M394 521T458 455T522 274V237Q522 122 459 56T287 -10Q178 -10 115 56T52 237V274Q52 389 116 455T287 521Q394 521 458 455ZM220 446T183 400T146 265V246Q146 159 182 112T287 65Q353 65 390 111T428
246V265Q428 352 392 399T287 446Q220 446 183 400Z" />
<glyph unicode="p" glyph-name="p" horiz-adv-x="583" d="M421 521T476 450T531 255V244Q531 126 477 58T324 -10Q230 -10 177 65V-181H83V511H153Q160 479 166 441Q223 521 324 521Q421 521 476 450ZM239 446T208 399T176 256Q176 158 208 112T307 65Q373 65
405 112T437 256Q437 354 405 400T307 446Q239 446 208 399Z" />
<glyph unicode="q" glyph-name="q" horiz-adv-x="583" d="M373 521T431 430L464 511H500V-180H406V65Q383 32 344 11T258 -10Q160 -10 106 58T52 244V255Q52 380 107 450T259 521Q373 521 431 430ZM209 446T178 399T146 256Q146 158 178 112T277 65Q343 65 375
112T407 256Q407 354 375 400T277 446Q209 446 178 399Z" />
<glyph unicode="r" glyph-name="r" horiz-adv-x="490" d="M384 521T424 476T464 361L461 323H378V345Q378 375 363 398T325 433T279 446Q231 446 204 408T177 305V0H83V511H150L164 435Q170 455 191 475T243 508T313 521Q384 521 424 476Z" />
<glyph unicode="s" glyph-name="s" horiz-adv-x="534" d="M335 521T379 503T448 453T473 382L472 364H379V373Q379 446 266 446Q154 446 154 379Q154 348 186 334T284 306Q347 293 387 279T456 235T485 154Q485 72 429 31T268 -10H253Q190 -10 143 9T71 62T46
138V160H139V150Q139 65 282 65Q324 65 357 84T391 136Q391 164 373 180T327 204T252 220Q190 232 152 244T87 287T60 369Q60 440 116 480T269 521H278Q335 521 379 503Z" />
<glyph unicode="t" glyph-name="t" horiz-adv-x="346" d="M193 511H312V436H193V131Q193 95 207 79T250 63Q276 63 312 78V8Q276 -10 219 -10Q160 -10 130 25T99 136V436H43V511H102L134 674H193V511Z" />
<glyph unicode="u" glyph-name="u" horiz-adv-x="618" d="M510 100Q510 82 518 74T538 65Q560 65 583 79V10Q552 -10 520 -10Q466 -10 445 12T421 74Q394 34 352 12T254 -10Q177 -10 128 35T78 167V511H172V184Q172 65 280 65Q315 65 346 84T397 135T416 207V511H510V100Z"
/>
<glyph unicode="v" glyph-name="v" horiz-adv-x="512" d="M500 511L306 0H206L12 511H112L258 120H262L408 511H500Z" />
<glyph unicode="w" glyph-name="w" horiz-adv-x="811" d="M789 511L622 0H524L406 357H402L286 0H188L20 511H117L236 137H240L361 511H453L572 137H576L697 511H789Z" />
<glyph unicode="x" glyph-name="x" horiz-adv-x="519" d="M492 511L313 265L501 0H389L256 187L121 0H18L206 259L28 511H140L263 337L389 511H492Z" />
<glyph unicode="y" glyph-name="y" horiz-adv-x="512" d="M309 20Q275 -64 246 -108T187 -169T117 -186Q80 -186 47 -172V-95Q80 -109 97 -109Q138 -109 165 -82T211 5L12 511H112L259 134H263L408 511H500L309 20Z" />
<glyph unicode="z" glyph-name="z" horiz-adv-x="463" d="M415 511V474L165 75H423V0H36V38L285 436H51V511H415Z" />
<glyph unicode="{" glyph-name="braceleft" horiz-adv-x="315" d="M275 636Q196 636 196 560Q196 497 191 412L189 371Q187 319 167 294T100 268V259Q147 259 167 234T189 156L191 112Q196 29 196 -24Q196 -77 216 -93T275 -109V-159Q192 -159 155 -126T117 -19V167Q117
192 96 208T40 224V303Q74 303 95 317T117 360V546Q117 621 155 653T275 686V636Z" />
<glyph unicode="|" glyph-name="bar" horiz-adv-x="248" d="M164 721V-199H84V721H164Z" />
<glyph unicode="}" glyph-name="braceright" horiz-adv-x="315" d="M123 686T160 653T198 546V360Q198 333 218 318T275 303V224Q241 224 220 210T198 167V-19Q198 -95 160 -127T40 -159V-109Q119 -109 119 -32Q119 30 124 115L126 156Q128 208 148 233T215 259V268Q168
268 148 293T126 371L124 414Q119 499 119 552Q119 604 98 620T40 636V686Q123 686 160 653Z" />
<glyph unicode="~" glyph-name="asciitilde" horiz-adv-x="689" d="M628 301Q599 268 555 246T467 223Q437 223 410 231T348 256Q308 273 282 281T226 289Q187 289 143 269T64 211V296Q98 332 143 353T227 374Q255 374 280 366T343 342Q380 325 407 317T466 308Q507
308 552 329T628 386V301Z" />
<glyph unicode="&#xa0;" glyph-name="uni00A0" horiz-adv-x="244" />
<glyph unicode="&#xa1;" glyph-name="exclamdown" horiz-adv-x="254" d="M177 510V399H76V510H177ZM184 335V-176H94V335H184Z" />
<glyph unicode="&#xa2;" glyph-name="cent" horiz-adv-x="527" d="M303 608Q388 599 440 545T492 398H399Q399 460 368 497T277 534Q215 534 179 493T142 379V325Q142 238 178 196T280 153Q341 153 371 189T402 288H492Q492 198 441 142T303 79L314 -7H241L251
79Q159 85 104 153T48 331V355Q48 427 73 483T144 571T251 608L241 693H314L303 608Z" />
<glyph unicode="&#xa3;" glyph-name="sterling" horiz-adv-x="597" d="M458 696T511 645T565 499V490H467V505Q467 550 437 578T360 607Q312 607 283 580T253 505V382H440V293H253L236 89H539V0H65V89H155V293H29V382H155V499Q155 590 211 643T358 696H367Q458
696 511 645Z" />
<glyph unicode="&#xa4;" glyph-name="currency" horiz-adv-x="624" d="M565 539L511 485Q560 418 560 337Q560 255 509 187L564 133L516 85L461 139Q393 89 312 89Q230 89 163 138L110 85L62 133L115 186Q64 254 64 336Q64 416 114 487L63 539L111 587L162 535Q233
585 313 585Q395 585 463 533L517 587L565 539ZM264 516T223 492T158 426T133 337Q133 288 157 247T222 182T312 158Q360 158 401 182T466 248T491 337Q491 385 467 426T401 491T312 516Q264 516 223 492Z" />
<glyph unicode="&#xa5;" glyph-name="yen" horiz-adv-x="634" d="M607 686L466 440H577V376H429L388 303H577V239H366V0H268V239H59V303H246L204 376H59V440H167L26 686H138L321 367H325L506 686H607Z" />
<glyph unicode="&#xa6;" glyph-name="brokenbar" horiz-adv-x="269" d="M179 686V419H90V686H179ZM179 266V0H90V266H179Z" />
<glyph unicode="&#xa7;" glyph-name="section" horiz-adv-x="514" d="M325 696T369 678T438 628T463 557L462 539H369V548Q369 621 256 621Q144 621 144 554Q144 525 163 503T212 464T292 425Q352 399 388 378T449 325T475 248Q475 151 389 98Q463 45 463 -30Q463
-104 408 -145T254 -186H245Q188 -186 144 -168T75 -118T50 -47L51 -29H144V-38Q144 -111 257 -111Q312 -111 340 -94T369 -44Q369 -2 332 25T221 84Q161 110 125 131T64 184T38 262Q38 361 123 412Q88 437 69 468T50 544Q50 615 106 655T259 696H268Q325 696 369
678ZM131 340T131 289Q131 256 150 233T199 193T279 154Q294 148 324 134Q382 173 382 222Q382 252 363 275T313 315T230 356L189 375Q131 340 131 289Z" />
<glyph unicode="&#xa8;" glyph-name="dieresis" horiz-adv-x="440" d="M171 731V633H81V731H171ZM360 731V633H269V731H360Z" />
<glyph unicode="&#xa9;" glyph-name="copyright" horiz-adv-x="780" d="M486 696T567 649T696 521T744 344Q744 247 697 166T568 38T390 -10Q293 -10 212 37T84 166T36 344Q36 440 83 521T212 649T390 696Q486 696 567 649ZM301 655T230 614T117 501T76 344Q76
256 117 184T229 71T390 30Q476 30 548 71T661 184T703 343Q703 432 661 503T546 615T390 655Q301 655 230 614ZM471 556T514 513T558 388H491V401Q491 444 464 471T393 499Q346 499 317 474T288 401V286Q288 239 317 213T394 187Q438 187 465 215T493 296H558Q558
217 514 173T396 129H391Q314 129 268 175T221 300V386Q221 464 267 510T390 556H395Q471 556 514 513Z" />
<glyph unicode="&#xaa;" glyph-name="ordfeminine" horiz-adv-x="415" d="M320 696T320 601V440Q320 430 325 425T338 419Q344 419 365 427V385Q341 373 319 373Q270 373 265 429Q227 373 157 373Q55 373 55 462Q55 502 75 524T139 556T263 566V594Q263 650 192
650Q160 650 141 638T122 602V594H67Q65 604 65 608Q65 647 100 671T193 696H198Q320 696 320 601ZM185 522T149 510T112 465Q112 439 127 429T177 419Q211 419 237 443T263 509V522Q185 522 149 510Z" />
<glyph unicode="&#xab;" glyph-name="guillemotleft" horiz-adv-x="460" d="M222 511L128 337L222 163H171L49 337L171 511H222ZM404 511L311 337L404 163H354L231 337L354 511H404Z" />
<glyph unicode="&#xac;" glyph-name="logicalnot" horiz-adv-x="617" d="M556 453V174H472V360H37V453H556Z" />
<glyph unicode="&#xad;" glyph-name="uni00AD" horiz-adv-x="391" d="M322 319V221H69V319H322Z" />
<glyph unicode="&#xae;" glyph-name="registered" horiz-adv-x="780" d="M486 696T567 649T696 521T744 344Q744 247 697 166T568 38T390 -10Q293 -10 212 37T84 166T36 344Q36 440 83 521T212 649T390 696Q486 696 567 649ZM301 656T230 615T117 502T76 344Q76
256 117 184T229 71T390 30Q477 30 548 70T662 183T704 344Q704 434 662 505T547 616T390 656Q301 656 230 615ZM477 547T512 518T547 449Q547 411 528 385T480 347Q512 334 523 307T539 233Q542 199 548 181T571 156V138Q556 132 541 132Q507 132 492 150T476
205Q476 267 457 293T409 319H310V135H246V547H433Q477 547 512 518ZM310 492V373H421Q447 373 465 390T484 431V435Q484 459 466 475T421 492H310Z" />
<glyph unicode="&#xaf;" glyph-name="overscore" horiz-adv-x="460" d="M389 736V662H71V736H389Z" />
<glyph unicode="&#xb0;" glyph-name="degree" horiz-adv-x="394" d="M236 696T270 675T326 620T347 546Q347 505 326 471T271 416T197 396Q158 396 124 416T68 470T47 546Q47 584 66 619T120 675T197 696Q236 696 270 675ZM158 635T131 609T103 545Q103 507 130
481T197 455Q235 455 262 481T290 545Q290 582 263 608T196 635Q158 635 131 609Z" />
<glyph unicode="&#xb1;" glyph-name="plusminus" horiz-adv-x="615" d="M348 511V364H563V280H348V134H265V280H51V364H265V511H348ZM558 83V0H55V83H558Z" />
<glyph unicode="&#xb2;" glyph-name="uni00B2" horiz-adv-x="384" d="M250 800T284 769T319 694Q319 656 306 630T251 572L146 492Q120 472 120 466H320V417H61V430Q61 491 112 528L222 610Q265 641 265 688Q265 715 246 733T191 751Q153 751 134 728T115 678V664H62Q61
667 61 675Q61 686 65 705T80 743Q115 800 195 800Q250 800 284 769Z" />
<glyph unicode="&#xb3;" glyph-name="uni00B3" horiz-adv-x="363" d="M233 800T267 772T302 698Q302 642 242 613Q311 588 311 519Q311 471 275 442T180 412H173Q111 412 77 442T42 524V528H96V522Q96 461 174 461Q213 461 235 477T257 526Q257 557 233 571T172
585H131V634H173Q206 634 227 650T248 695Q248 723 228 737T176 751Q145 751 125 736T105 693V688H51V698Q51 745 85 772T175 800H180Q233 800 267 772Z" />
<glyph unicode="&#xb4;" glyph-name="acute" horiz-adv-x="333" d="M252 720L253 717L137 575H68L162 720H252Z" />
<glyph unicode="&#xb5;" glyph-name="uni00B5" horiz-adv-x="612" d="M514 100Q514 82 522 74T542 65Q564 65 587 79V10Q556 -10 524 -10Q470 -10 449 12T425 74Q400 36 357 13T264 -10Q210 -10 170 15L176 -32V-161H82V511H176V184Q176 65 284 65Q319 65 350
84T401 135T420 207V511H514V100Z" />
<glyph unicode="&#xb6;" glyph-name="paragraph" horiz-adv-x="524" d="M481 625H415V-169H352V625H280V-169H217V250Q163 257 119 287T50 364T25 467Q25 526 54 576T133 656T243 686H481V625Z" />
<glyph unicode="&#xb7;" glyph-name="middot" horiz-adv-x="239" d="M170 344V232H69V344H170Z" />
<glyph unicode="&#xb8;" glyph-name="cedilla" horiz-adv-x="350" d="M280 -17T280 -106Q280 -147 249 -172T175 -197Q110 -197 70 -175L79 -126Q121 -146 152 -146Q218 -146 218 -101Q218 -82 203 -71T166 -60H145V-17H169Q280 -17 280 -106Z" />
<glyph unicode="&#xb9;" glyph-name="uni00B9" horiz-adv-x="334" d="M203 471H284V422H50V471H149V724H50V759Q107 764 182 796H203V471Z" />
<glyph unicode="&#xba;" glyph-name="ordmasculine" horiz-adv-x="392" d="M263 696T301 656T339 546V523Q339 452 301 413T196 373Q130 373 92 412T53 523V546Q53 616 91 656T196 696Q263 696 301 656ZM158 650T134 623T110 540V529Q110 473 134 446T196 419Q234
419 258 446T282 529V540Q282 596 258 623T196 650Q158 650 134 623Z" />
<glyph unicode="&#xbb;" glyph-name="guillemotright" horiz-adv-x="460" d="M107 511L230 337L107 163H56L150 337L56 511H107ZM289 511L411 337L289 163H239L332 337L239 511H289Z" />
<glyph unicode="&#xbc;" glyph-name="onequarter" horiz-adv-x="702" d="M615 686L198 0H143L563 686H615ZM189 359H270V310H36V359H135V612H36V647Q93 652 168 684H189V359ZM554 305T515 236T452 140H575V245Q595 286 604 319H629V140H675V91H629V0H575V91H402V141Q476
253 517 374H572Q554 305 515 236Z" />
<glyph unicode="&#xbd;" glyph-name="onehalf" horiz-adv-x="726" d="M595 686L178 0H123L543 686H595ZM186 359H267V310H33V359H132V612H33V647Q90 652 165 684H186V359ZM625 383T660 352T695 277Q695 239 682 213T627 155L522 75Q496 55 496 49H696V0H437V13Q437
74 488 111L598 193Q641 224 641 271Q641 298 622 316T567 334Q529 334 510 311T491 261V247H438Q437 250 437 258Q437 269 441 288T456 326Q491 383 571 383Q625 383 660 352Z" />
<glyph unicode="&#xbe;" glyph-name="threequarters" horiz-adv-x="698" d="M222 686T256 658T291 584Q291 528 231 499Q300 473 300 405Q300 357 264 328T169 298H162Q100 298 66 328T31 410V414H85V408Q85 347 163 347Q202 347 224 363T246 412Q246 443 222
457T161 471H120V520H162Q195 520 216 536T237 581Q237 609 217 623T165 637Q134 637 114 622T94 579V574H40V584Q40 631 74 658T164 686H169Q222 686 256 658ZM615 686L198 0H143L563 686H615ZM549 305T510 236T447 140H570V245Q590 286 599 319H624V140H670V91H624V0H570V91H397V141Q471
253 512 374H567Q549 305 510 236Z" />
<glyph unicode="&#xbf;" glyph-name="questiondown" horiz-adv-x="495" d="M292 511V400H188V511H292ZM290 262Q290 227 270 200T211 136Q172 99 153 73T134 13Q134 -34 167 -65T252 -96Q307 -96 339 -66T372 16L370 53H468Q471 41 471 15Q471 -33 446 -79T370
-155T251 -185H245Q179 -185 132 -157T60 -82T35 20Q35 59 48 88T79 138T127 183Q159 210 174 230T190 277V326H290V262Z" />
<glyph unicode="&#xc0;" glyph-name="Agrave" horiz-adv-x="652" d="M265 895L360 750H290L175 892L176 895H265ZM380 686L648 0H542L484 149H156L99 0H4L272 686H380ZM324 568H318L191 238H450L324 568Z" />
<glyph unicode="&#xc1;" glyph-name="Aacute" horiz-adv-x="652" d="M476 895L477 892L361 750H292L386 895H476ZM380 686L648 0H542L484 149H156L99 0H4L272 686H380ZM324 568H318L191 238H450L324 568Z" />
<glyph unicode="&#xc2;" glyph-name="Acircumflex" horiz-adv-x="652" d="M363 895L498 750H418L324 839L229 750H149L285 895H363ZM380 686L648 0H542L484 149H156L99 0H4L272 686H380ZM324 568H318L191 238H450L324 568Z" />
<glyph unicode="&#xc3;" glyph-name="Atilde" horiz-adv-x="652" d="M517 809T486 780T405 750Q371 750 335 761Q326 763 319 765T304 770Q279 778 266 781T236 784Q191 784 181 750H131Q131 792 161 823T242 854Q265 854 284 850T332 836Q389 819 412 819Q456
819 467 854H517Q517 809 486 780ZM380 686L648 0H542L484 149H156L99 0H4L272 686H380ZM324 568H318L191 238H450L324 568Z" />
<glyph unicode="&#xc4;" glyph-name="Adieresis" horiz-adv-x="652" d="M274 847V749H184V847H274ZM463 847V749H372V847H463ZM380 686L648 0H542L484 149H156L99 0H4L272 686H380ZM324 568H318L191 238H450L324 568Z" />
<glyph unicode="&#xc5;" glyph-name="Aring" horiz-adv-x="652" d="M365 926T396 897T427 825Q427 784 398 755T326 725Q285 725 255 754T225 825Q225 867 254 896T326 926Q365 926 396 897ZM303 879T287 864T270 825Q270 802 286 787T326 772Q349 772 365 787T382
826Q382 848 366 863T326 879Q303 879 287 864ZM380 686L648 0H542L484 149H156L99 0H4L272 686H380ZM324 568H318L191 238H450L324 568Z" />
<glyph unicode="&#xc6;" glyph-name="AE" horiz-adv-x="983" d="M932 686L919 597H501L551 395H887V306H573L627 89H925L939 0H544L507 149H179L101 0H7L371 686H932ZM406 568H400L227 238H486L406 568Z" />
<glyph unicode="&#xc7;" glyph-name="Ccedilla" horiz-adv-x="663" d="M424 696T484 663T576 569T609 423H511Q511 510 468 558T344 607Q254 607 207 552T160 388V298Q160 191 206 135T342 79Q426 79 470 127T515 261H609Q609 178 577 117T484 23T344 -10Q211
-10 137 71T62 298V388Q62 532 136 614T344 696Q424 696 484 663ZM449 -17T449 -106Q449 -147 418 -172T344 -197Q279 -197 239 -175L248 -126Q290 -146 320 -146Q387 -146 387 -101Q387 -82 372 -71T335 -60H314V-17H338Q449 -17 449 -106Z" />
<glyph unicode="&#xc8;" glyph-name="Egrave" horiz-adv-x="593" d="M270 895L365 750H295L180 892L181 895H270ZM542 686L529 597H190V395H497V306H190V89H535L549 0H92V686H542Z" />
<glyph unicode="&#xc9;" glyph-name="Eacute" horiz-adv-x="593" d="M468 895L469 892L353 750H284L378 895H468ZM542 686L529 597H190V395H497V306H190V89H535L549 0H92V686H542Z" />
<glyph unicode="&#xca;" glyph-name="Ecircumflex" horiz-adv-x="593" d="M354 895L489 750H409L315 839L220 750H140L276 895H354ZM542 686L529 597H190V395H497V306H190V89H535L549 0H92V686H542Z" />
<glyph unicode="&#xcb;" glyph-name="Edieresis" horiz-adv-x="593" d="M268 848V750H178V848H268ZM457 848V750H366V848H457ZM542 686L529 597H190V395H497V306H190V89H535L549 0H92V686H542Z" />
<glyph unicode="&#xcc;" glyph-name="Igrave" horiz-adv-x="364" d="M122 895L217 750H147L32 892L33 895H122ZM311 686V597H231V89H311V0H53V89H133V597H53V686H311Z" />
<glyph unicode="&#xcd;" glyph-name="Iacute" horiz-adv-x="364" d="M328 895L329 892L213 750H144L238 895H328ZM311 686V597H231V89H311V0H53V89H133V597H53V686H311Z" />
<glyph unicode="&#xce;" glyph-name="Icircumflex" horiz-adv-x="364" d="M222 895L357 750H277L183 839L88 750H8L144 895H222ZM311 686V597H231V89H311V0H53V89H133V597H53V686H311Z" />
<glyph unicode="&#xcf;" glyph-name="Idieresis" horiz-adv-x="364" d="M133 848V750H43V848H133ZM322 848V750H231V848H322ZM311 686V597H231V89H311V0H53V89H133V597H53V686H311Z" />
<glyph unicode="&#xd0;" glyph-name="Eth" horiz-adv-x="681" d="M422 686T486 649T585 542T620 378V308Q620 214 585 145T486 38T336 0H98V310H5V375H98V686H336Q422 686 486 649ZM196 597V375H341V310H196V89H336Q425 89 473 144T522 308V378Q522 484 475 540T336
597H196Z" />
<glyph unicode="&#xd1;" glyph-name="Ntilde" horiz-adv-x="694" d="M541 809T510 780T429 750Q395 750 359 761Q350 763 343 765T328 770Q303 778 290 781T260 784Q215 784 205 750H155Q155 792 185 823T266 854Q289 854 308 850T356 836Q413 819 436 819Q480
819 491 854H541Q541 809 510 780ZM602 686V0H519L184 502L181 501V0H92V686H178L510 190L513 191V686H602Z" />
<glyph unicode="&#xd2;" glyph-name="Ograve" horiz-adv-x="690" d="M288 895L383 750H313L198 892L199 895H288ZM430 696T494 659T593 553T629 388V298Q629 203 594 134T494 27T345 -10Q260 -10 196 27T97 133T61 298V388Q61 483 96 552T196 659T345 696Q430
696 494 659ZM257 607T208 551T159 388V298Q159 191 206 135T345 79Q433 79 482 134T531 298V388Q531 495 484 551T345 607Q257 607 208 551Z" />
<glyph unicode="&#xd3;" glyph-name="Oacute" horiz-adv-x="690" d="M490 895L491 892L375 750H306L400 895H490ZM430 696T494 659T593 553T629 388V298Q629 203 594 134T494 27T345 -10Q260 -10 196 27T97 133T61 298V388Q61 483 96 552T196 659T345 696Q430
696 494 659ZM257 607T208 551T159 388V298Q159 191 206 135T345 79Q433 79 482 134T531 298V388Q531 495 484 551T345 607Q257 607 208 551Z" />
<glyph unicode="&#xd4;" glyph-name="Ocircumflex" horiz-adv-x="690" d="M382 895L517 750H437L343 839L248 750H168L304 895H382ZM430 696T494 659T593 553T629 388V298Q629 203 594 134T494 27T345 -10Q260 -10 196 27T97 133T61 298V388Q61 483 96 552T196
659T345 696Q430 696 494 659ZM257 607T208 551T159 388V298Q159 191 206 135T345 79Q433 79 482 134T531 298V388Q531 495 484 551T345 607Q257 607 208 551Z" />
<glyph unicode="&#xd5;" glyph-name="Otilde" horiz-adv-x="690" d="M538 808T507 779T426 750Q392 750 356 761Q347 763 340 765T325 770Q300 778 287 781T257 784Q212 784 202 750H152Q152 793 182 823T263 854Q282 854 298 851T330 843T352 836Q403 819 433
819Q477 819 488 854H538Q538 808 507 779ZM430 696T494 659T593 553T629 388V298Q629 203 594 134T494 27T345 -10Q260 -10 196 27T97 133T61 298V388Q61 483 96 552T196 659T345 696Q430 696 494 659ZM257 607T208 551T159 388V298Q159 191 206 135T345 79Q433
79 482 134T531 298V388Q531 495 484 551T345 607Q257 607 208 551Z" />
<glyph unicode="&#xd6;" glyph-name="Odieresis" horiz-adv-x="690" d="M297 848V750H207V848H297ZM486 848V750H395V848H486ZM430 696T494 659T593 553T629 388V298Q629 203 594 134T494 27T345 -10Q260 -10 196 27T97 133T61 298V388Q61 483 96 552T196 659T345
696Q430 696 494 659ZM257 607T208 551T159 388V298Q159 191 206 135T345 79Q433 79 482 134T531 298V388Q531 495 484 551T345 607Q257 607 208 551Z" />
<glyph unicode="&#xd7;" glyph-name="multiply" horiz-adv-x="615" d="M461 466L516 407L363 255L516 104L461 45L308 195L154 45L99 104L252 255L99 407L154 466L308 314L461 466Z" />
<glyph unicode="&#xd8;" glyph-name="Oslash" horiz-adv-x="690" d="M544 621Q629 540 629 388V298Q629 203 594 134T494 27T345 -10Q257 -10 190 30L134 -65H70L147 63Q61 146 61 298V388Q61 483 96 552T196 659T345 696Q434 696 501 655L560 754H624L544 621ZM254
607T207 552T159 388V298Q159 200 197 147L454 577Q409 607 357 607Q254 607 207 552ZM237 108Q281 79 333 79Q435 79 483 134T531 298V388Q531 481 494 537L237 108Z" />
<glyph unicode="&#xd9;" glyph-name="Ugrave" horiz-adv-x="680" d="M288 895L383 750H313L198 892L199 895H288ZM594 219Q594 151 564 99T477 19T346 -10H333Q259 -10 204 18T117 98T86 219V686H184V221Q184 157 228 118T342 79Q413 79 454 118T496 221V686H594V219Z" />
<glyph unicode="&#xda;" glyph-name="Uacute" horiz-adv-x="680" d="M488 895L489 892L373 750H304L398 895H488ZM594 219Q594 151 564 99T477 19T346 -10H333Q259 -10 204 18T117 98T86 219V686H184V221Q184 157 228 118T342 79Q413 79 454 118T496 221V686H594V219Z" />
<glyph unicode="&#xdb;" glyph-name="Ucircumflex" horiz-adv-x="680" d="M379 895L514 750H434L340 839L245 750H165L301 895H379ZM594 219Q594 151 564 99T477 19T346 -10H333Q259 -10 204 18T117 98T86 219V686H184V221Q184 157 228 118T342 79Q413 79 454
118T496 221V686H594V219Z" />
<glyph unicode="&#xdc;" glyph-name="Udieresis" horiz-adv-x="680" d="M291 848V750H201V848H291ZM480 848V750H389V848H480ZM594 219Q594 151 564 99T477 19T346 -10H333Q259 -10 204 18T117 98T86 219V686H184V221Q184 157 228 118T342 79Q413 79 454 118T496
221V686H594V219Z" />
<glyph unicode="&#xdd;" glyph-name="Yacute" horiz-adv-x="572" d="M443 895L444 892L328 750H259L353 895H443ZM576 686L335 265V0H237V265L-5 686H107L290 367H294L475 686H576Z" />
<glyph unicode="&#xde;" glyph-name="Thorn" horiz-adv-x="633" d="M190 562H388Q446 562 493 536T566 465T593 362Q593 305 567 260T493 188T388 162H190V0H92V686H190V562ZM190 473V251H379Q426 251 460 283T495 362Q495 409 461 441T379 473H190Z" />
<glyph unicode="&#xdf;" glyph-name="germandbls" horiz-adv-x="614" d="M392 728T440 704T515 638T542 543Q542 493 514 451T442 391L444 387Q499 366 532 317T565 200Q565 145 535 100T454 27T342 0H259V75H332Q372 75 403 94T453 146T471 214Q471 249 452 279T401
328T332 346H259V420H324Q376 420 412 454T448 540Q448 591 416 622T327 653Q270 653 234 615T198 513V-66H104V436H46V511H104Q105 576 135 625T216 701T331 728Q392 728 440 704Z" />
<glyph unicode="&#xe0;" glyph-name="agrave" horiz-adv-x="585" d="M219 720L314 575H244L129 717L130 720H219ZM385 521T434 481T484 365V100Q484 82 492 74T512 65Q535 65 558 79V10Q524 -10 481 -10Q438 -10 417 14T394 82Q332 -10 215 -10Q131 -10 90 26T48
142Q48 204 80 239T186 291T390 307V354Q390 405 360 425T273 446Q219 446 189 425T159 366V354H67Q65 368 65 387Q65 422 93 453T169 502T275 521H284Q385 521 434 481ZM285 234T232 224T160 192T142 134Q142 65 247 65Q284 65 317 83T370 136T390 214V234Q285
234 232 224Z" />
<glyph unicode="&#xe1;" glyph-name="aacute" horiz-adv-x="585" d="M430 720L431 717L315 575H246L340 720H430ZM385 521T434 481T484 365V100Q484 82 492 74T512 65Q535 65 558 79V10Q524 -10 481 -10Q438 -10 417 14T394 82Q332 -10 215 -10Q131 -10 90 26T48
142Q48 204 80 239T186 291T390 307V354Q390 405 360 425T273 446Q219 446 189 425T159 366V354H67Q65 368 65 387Q65 422 93 453T169 502T275 521H284Q385 521 434 481ZM285 234T232 224T160 192T142 134Q142 65 247 65Q284 65 317 83T370 136T390 214V234Q285
234 232 224Z" />
<glyph unicode="&#xe2;" glyph-name="acircumflex" horiz-adv-x="585" d="M317 720L452 575H372L278 664L183 575H103L239 720H317ZM385 521T434 481T484 365V100Q484 82 492 74T512 65Q535 65 558 79V10Q524 -10 481 -10Q438 -10 417 14T394 82Q332 -10 215 -10Q131
-10 90 26T48 142Q48 204 80 239T186 291T390 307V354Q390 405 360 425T273 446Q219 446 189 425T159 366V354H67Q65 368 65 387Q65 422 93 453T169 502T275 521H284Q385 521 434 481ZM285 234T232 224T160 192T142 134Q142 65 247 65Q284 65 317 83T370 136T390
214V234Q285 234 232 224Z" />
<glyph unicode="&#xe3;" glyph-name="atilde" horiz-adv-x="585" d="M471 675T440 646T359 616Q325 616 289 627Q280 629 273 631T258 636Q233 644 220 647T190 650Q145 650 135 616H85Q85 658 115 689T196 720Q219 720 238 716T286 702Q343 685 366 685Q410 685
421 720H471Q471 675 440 646ZM385 521T434 481T484 365V100Q484 82 492 74T512 65Q535 65 558 79V10Q524 -10 481 -10Q438 -10 417 14T394 82Q332 -10 215 -10Q131 -10 90 26T48 142Q48 204 80 239T186 291T390 307V354Q390 405 360 425T273 446Q219 446 189 425T159
366V354H67Q65 368 65 387Q65 422 93 453T169 502T275 521H284Q385 521 434 481ZM285 234T232 224T160 192T142 134Q142 65 247 65Q284 65 317 83T370 136T390 214V234Q285 234 232 224Z" />
<glyph unicode="&#xe4;" glyph-name="adieresis" horiz-adv-x="585" d="M226 720V622H136V720H226ZM415 720V622H324V720H415ZM385 521T434 481T484 365V100Q484 82 492 74T512 65Q535 65 558 79V10Q524 -10 481 -10Q438 -10 417 14T394 82Q332 -10 215 -10Q131
-10 90 26T48 142Q48 204 80 239T186 291T390 307V354Q390 405 360 425T273 446Q219 446 189 425T159 366V354H67Q65 368 65 387Q65 422 93 453T169 502T275 521H284Q385 521 434 481ZM285 234T232 224T160 192T142 134Q142 65 247 65Q284 65 317 83T370 136T390
214V234Q285 234 232 224Z" />
<glyph unicode="&#xe5;" glyph-name="aring" horiz-adv-x="585" d="M317 757T347 728T378 656Q378 615 349 586T277 556Q236 556 206 584T176 656Q176 698 205 727T277 757Q317 757 347 728ZM254 710T238 695T221 656Q221 633 237 618T277 603Q300 603 316 618T333
657Q333 679 317 694T277 710Q254 710 238 695ZM385 521T434 481T484 365V100Q484 82 492 74T512 65Q535 65 558 79V10Q524 -10 481 -10Q438 -10 417 14T394 82Q332 -10 215 -10Q131 -10 90 26T48 142Q48 204 80 239T186 291T390 307V354Q390 405 360 425T273 446Q219
446 189 425T159 366V354H67Q65 368 65 387Q65 422 93 453T169 502T275 521H284Q385 521 434 481ZM285 234T232 224T160 192T142 134Q142 65 247 65Q284 65 317 83T370 136T390 214V234Q285 234 232 224Z" />
<glyph unicode="&#xe6;" glyph-name="ae" horiz-adv-x="895" d="M689 521T738 495T814 420T841 305V234H484Q486 153 522 109T629 65Q692 65 722 102T752 190H841Q841 131 814 86T739 15T627 -10H623Q556 -10 505 18T423 101Q390 48 334 19T215 -10Q131 -10 90
26T48 142Q48 204 80 239T186 291T390 307V354Q390 405 360 425T273 446Q219 446 189 425T159 366V354H67Q65 368 65 387Q65 422 93 453T169 502T275 521H284Q411 521 457 457Q517 521 620 521H627Q689 521 738 495ZM565 446T530 411T486 307H748V319Q748 376 714
411T622 446Q565 446 530 411ZM285 234T232 224T160 192T142 134Q142 65 247 65Q284 65 317 83T370 136T390 214V234Q285 234 232 224Z" />
<glyph unicode="&#xe7;" glyph-name="ccedilla" horiz-adv-x="544" d="M344 521T392 495T468 420T495 310H402Q402 372 371 409T280 446Q218 446 182 405T145 291V237Q145 150 181 108T283 65Q344 65 374 101T405 200H495Q495 104 438 47T284 -10H276Q208 -10
157 21T79 110T51 243V267Q51 343 79 400T158 489T275 521H283Q344 521 392 495ZM389 -17T389 -106Q389 -147 358 -172T284 -197Q219 -197 179 -175L188 -126Q230 -146 260 -146Q327 -146 327 -101Q327 -82 312 -71T275 -60H254V-17H278Q389 -17 389 -106Z" />
<glyph unicode="&#xe8;" glyph-name="egrave" horiz-adv-x="556" d="M225 720L320 575H250L135 717L136 720H225ZM351 521T399 495T475 419T502 305V234H145Q147 153 183 109T290 65Q353 65 383 102T413 190H502Q502 130 475 85T399 15T288 -10H284Q176 -10 114
59T51 245V265Q51 341 79 399T159 489T281 521H288Q351 521 399 495ZM226 446T191 411T147 307H409V319Q409 376 375 411T283 446Q226 446 191 411Z" />
<glyph unicode="&#xe9;" glyph-name="eacute" horiz-adv-x="556" d="M430 720L431 717L315 575H246L340 720H430ZM351 521T399 495T475 419T502 305V234H145Q147 153 183 109T290 65Q353 65 383 102T413 190H502Q502 130 475 85T399 15T288 -10H284Q176 -10 114
59T51 245V265Q51 341 79 399T159 489T281 521H288Q351 521 399 495ZM226 446T191 411T147 307H409V319Q409 376 375 411T283 446Q226 446 191 411Z" />
<glyph unicode="&#xea;" glyph-name="ecircumflex" horiz-adv-x="556" d="M322 720L457 575H377L283 664L188 575H108L244 720H322ZM351 521T399 495T475 419T502 305V234H145Q147 153 183 109T290 65Q353 65 383 102T413 190H502Q502 130 475 85T399 15T288 -10H284Q176
-10 114 59T51 245V265Q51 341 79 399T159 489T281 521H288Q351 521 399 495ZM226 446T191 411T147 307H409V319Q409 376 375 411T283 446Q226 446 191 411Z" />
<glyph unicode="&#xeb;" glyph-name="edieresis" horiz-adv-x="556" d="M233 720V622H143V720H233ZM422 720V622H331V720H422ZM351 521T399 495T475 419T502 305V234H145Q147 153 183 109T290 65Q353 65 383 102T413 190H502Q502 130 475 85T399 15T288 -10H284Q176
-10 114 59T51 245V265Q51 341 79 399T159 489T281 521H288Q351 521 399 495ZM226 446T191 411T147 307H409V319Q409 376 375 411T283 446Q226 446 191 411Z" />
<glyph unicode="&#xec;" glyph-name="igrave" horiz-adv-x="260" d="M83 720L176 575H106L-9 717L-8 720H83ZM177 511V0H83V511H177Z" />
<glyph unicode="&#xed;" glyph-name="iacute" horiz-adv-x="260" d="M269 720L270 717L154 575H85L179 720H269ZM177 511V0H83V511H177Z" />
<glyph unicode="&#xee;" glyph-name="icircumflex" horiz-adv-x="260" d="M170 720L305 575H225L131 664L36 575H-44L92 720H170ZM177 511V0H83V511H177Z" />
<glyph unicode="&#xef;" glyph-name="idieresis" horiz-adv-x="260" d="M83 720V622H-9V720H83ZM270 720V622H179V720H270ZM177 511V0H83V511H177Z" />
<glyph unicode="&#xf0;" glyph-name="eth" horiz-adv-x="575" d="M217 707T268 673L362 717L394 683L307 643Q522 466 522 274V237Q522 122 459 56T287 -10Q178 -10 115 56T52 237V274Q52 389 116 455T287 521Q303 521 319 518Q285 559 236 605L145 562Q145 562
109 595L203 639Q184 655 140 683L114 700L173 729Q217 707 268 673ZM220 446T183 400T146 265V246Q146 159 182 112T287 65Q353 65 390 111T428 246V265Q428 352 392 399T287 446Q220 446 183 400Z" />
<glyph unicode="&#xf1;" glyph-name="ntilde" horiz-adv-x="593" d="M497 675T466 646T385 616Q351 616 315 627Q306 629 299 631T284 636Q259 644 246 647T216 650Q171 650 161 616H111Q111 658 141 689T222 720Q245 720 264 716T312 702Q369 685 392 685Q436
685 447 720H497Q497 675 466 646ZM419 521T467 476T515 344V0H421V327Q421 446 313 446Q277 446 246 427T196 376T177 304V0H83V511H151L164 436Q228 521 335 521Q419 521 467 476Z" />
<glyph unicode="&#xf2;" glyph-name="ograve" horiz-adv-x="574" d="M228 720L323 575H253L138 717L139 720H228ZM394 521T458 455T522 274V237Q522 122 459 56T287 -10Q178 -10 115 56T52 237V274Q52 389 116 455T287 521Q394 521 458 455ZM220 446T183 400T146
265V246Q146 159 182 112T287 65Q353 65 390 111T428 246V265Q428 352 392 399T287 446Q220 446 183 400Z" />
<glyph unicode="&#xf3;" glyph-name="oacute" horiz-adv-x="574" d="M439 720L440 717L324 575H255L349 720H439ZM394 521T458 455T522 274V237Q522 122 459 56T287 -10Q178 -10 115 56T52 237V274Q52 389 116 455T287 521Q394 521 458 455ZM220 446T183 400T146
265V246Q146 159 182 112T287 65Q353 65 390 111T428 246V265Q428 352 392 399T287 446Q220 446 183 400Z" />
<glyph unicode="&#xf4;" glyph-name="ocircumflex" horiz-adv-x="574" d="M325 720L460 575H380L286 664L191 575H111L247 720H325ZM394 521T458 455T522 274V237Q522 122 459 56T287 -10Q178 -10 115 56T52 237V274Q52 389 116 455T287 521Q394 521 458 455ZM220
446T183 400T146 265V246Q146 159 182 112T287 65Q353 65 390 111T428 246V265Q428 352 392 399T287 446Q220 446 183 400Z" />
<glyph unicode="&#xf5;" glyph-name="otilde" horiz-adv-x="574" d="M480 674T449 645T368 616Q334 616 298 627Q289 629 282 631T267 636Q242 644 229 647T199 650Q154 650 144 616H94Q94 659 124 689T205 720Q224 720 240 717T272 709T294 702Q345 685 375 685Q419
685 430 720H480Q480 674 449 645ZM394 521T458 455T522 274V237Q522 122 459 56T287 -10Q178 -10 115 56T52 237V274Q52 389 116 455T287 521Q394 521 458 455ZM220 446T183 400T146 265V246Q146 159 182 112T287 65Q353 65 390 111T428 246V265Q428 352 392 399T287
446Q220 446 183 400Z" />
<glyph unicode="&#xf6;" glyph-name="odieresis" horiz-adv-x="574" d="M237 720V622H147V720H237ZM426 720V622H335V720H426ZM394 521T458 455T522 274V237Q522 122 459 56T287 -10Q178 -10 115 56T52 237V274Q52 389 116 455T287 521Q394 521 458 455ZM220 446T183
400T146 265V246Q146 159 182 112T287 65Q353 65 390 111T428 246V265Q428 352 392 399T287 446Q220 446 183 400Z" />
<glyph unicode="&#xf7;" glyph-name="divide" horiz-adv-x="615" d="M349 460V369H266V460H349ZM563 297V213H51V297H563ZM349 141V51H266V141H349Z" />
<glyph unicode="&#xf8;" glyph-name="oslash" horiz-adv-x="574" d="M447 466Q522 400 522 274V237Q522 122 459 56T287 -10Q220 -10 167 17L122 -55H63L126 45Q52 111 52 237V274Q52 389 116 455T287 521Q353 521 406 494L452 568H511L447 466ZM221 446T184 400T146
265V246Q146 171 175 124L363 425Q330 446 294 446Q221 446 184 400ZM210 86Q242 65 279 65Q354 65 391 111T428 246V265Q428 342 398 388L210 86Z" />
<glyph unicode="&#xf9;" glyph-name="ugrave" horiz-adv-x="618" d="M243 720L338 575H268L153 717L154 720H243ZM510 100Q510 82 518 74T538 65Q560 65 583 79V10Q552 -10 520 -10Q466 -10 445 12T421 74Q394 34 352 12T254 -10Q177 -10 128 35T78 167V511H172V184Q172
65 280 65Q315 65 346 84T397 135T416 207V511H510V100Z" />
<glyph unicode="&#xfa;" glyph-name="uacute" horiz-adv-x="618" d="M443 720L444 717L328 575H259L353 720H443ZM510 100Q510 82 518 74T538 65Q560 65 583 79V10Q552 -10 520 -10Q466 -10 445 12T421 74Q394 34 352 12T254 -10Q177 -10 128 35T78 167V511H172V184Q172
65 280 65Q315 65 346 84T397 135T416 207V511H510V100Z" />
<glyph unicode="&#xfb;" glyph-name="ucircumflex" horiz-adv-x="618" d="M331 720L466 575H386L292 664L197 575H117L253 720H331ZM510 100Q510 82 518 74T538 65Q560 65 583 79V10Q552 -10 520 -10Q466 -10 445 12T421 74Q394 34 352 12T254 -10Q177 -10 128
35T78 167V511H172V184Q172 65 280 65Q315 65 346 84T397 135T416 207V511H510V100Z" />
<glyph unicode="&#xfc;" glyph-name="udieresis" horiz-adv-x="618" d="M245 720V622H155V720H245ZM434 720V622H343V720H434ZM510 100Q510 82 518 74T538 65Q560 65 583 79V10Q552 -10 520 -10Q466 -10 445 12T421 74Q394 34 352 12T254 -10Q177 -10 128 35T78
167V511H172V184Q172 65 280 65Q315 65 346 84T397 135T416 207V511H510V100Z" />
<glyph unicode="&#xfd;" glyph-name="yacute" horiz-adv-x="512" d="M406 720L407 717L291 575H222L316 720H406ZM309 20Q275 -64 246 -108T187 -169T117 -186Q80 -186 47 -172V-95Q80 -109 97 -109Q138 -109 165 -82T211 5L12 511H112L259 134H263L408 511H500L309 20Z" />
<glyph unicode="&#xfe;" glyph-name="thorn" horiz-adv-x="583" d="M177 455Q231 521 324 521Q421 521 476 450T531 255V244Q531 126 477 58T324 -10Q230 -10 177 65V-181H83V720H177V455ZM239 446T208 399T176 256Q176 158 208 112T307 65Q373 65 405 112T437
256Q437 354 405 400T307 446Q239 446 208 399Z" />
<glyph unicode="&#xff;" glyph-name="ydieresis" horiz-adv-x="512" d="M210 720V622H120V720H210ZM399 720V622H308V720H399ZM309 20Q275 -64 246 -108T187 -169T117 -186Q80 -186 47 -172V-95Q80 -109 97 -109Q138 -109 165 -82T211 5L12 511H112L259 134H263L408
511H500L309 20Z" />
<glyph unicode="&#x2013;" glyph-name="endash" horiz-adv-x="638" d="M569 318V223H69V318H569Z" />
<glyph unicode="&#x2014;" glyph-name="emdash" horiz-adv-x="1058" d="M982 317V223H72V317H982Z" />
<glyph unicode="&#x2018;" glyph-name="quoteleft" horiz-adv-x="224" d="M148 686L121 562H162V451H61V536L96 686H148Z" />
<glyph unicode="&#x2019;" glyph-name="quoteright" horiz-adv-x="219" d="M162 686V601L127 451H75L102 575H61V686H162Z" />
<glyph unicode="&#x201a;" glyph-name="quotesinglbase" horiz-adv-x="238" d="M170 111V26L135 -124H83L110 0H69V111H170Z" />
<glyph unicode="&#x201c;" glyph-name="quotedblleft" horiz-adv-x="366" d="M148 686L121 562H162V451H61V536L96 686H148ZM290 686L263 562H304V451H203V536L238 686H290Z" />
<glyph unicode="&#x201d;" glyph-name="quotedblright" horiz-adv-x="361" d="M162 686V601L127 451H75L102 575H61V686H162ZM304 686V601L269 451H217L244 575H203V686H304Z" />
<glyph unicode="&#x201e;" glyph-name="quotedblbase" horiz-adv-x="380" d="M170 111V26L135 -124H83L110 0H69V111H170ZM312 111V26L277 -124H225L252 0H211V111H312Z" />
<glyph unicode="&#x2022;" glyph-name="bullet" horiz-adv-x="600" d="M339 496T373 476T429 420T450 344Q450 301 429 266T374 211T299 191Q259 191 225 212T170 268T150 344Q150 386 170 420T225 475T299 496Q339 496 373 476Z" />
<glyph unicode="&#x2039;" glyph-name="guilsinglleft" horiz-adv-x="278" d="M222 511L128 337L222 163H171L49 337L171 511H222Z" />
<glyph unicode="&#x203a;" glyph-name="guilsinglright" horiz-adv-x="278" d="M107 511L229 337L107 163H56L150 337L56 511H107Z" />
</font>
</defs>
</svg>
