<?xml version="1.0" standalone="no"?>
<!DOCTYPE svg PUBLIC "-//W3C//DTD SVG 1.1//EN" "http://www.w3.org/Graphics/SVG/1.1/DTD/svg11.dtd">
<svg xmlns="http://www.w3.org/2000/svg">
<defs >
<font id="Chivo" horiz-adv-x="576" ><font-face
    font-family="Chivo Black"
    units-per-em="1000"
    panose-1="0 0 10 0 0 0 0 0 0 0"
    ascent="940"
    descent="-250"
    alphabetic="0" />
<glyph unicode=" " glyph-name="space" horiz-adv-x="192" />
<glyph unicode="!" glyph-name="exclam" horiz-adv-x="311" d="M275 686L218 231H91L37 686H275ZM252 183V0H61V183H252Z" />
<glyph unicode="&quot;" glyph-name="quotedbl" horiz-adv-x="434" d="M193 686V539L146 396H85L38 539V686H193ZM396 686V539L348 396H288L241 539V686H396Z" />
<glyph unicode="#" glyph-name="numbersign" horiz-adv-x="662" d="M587 696L542 502H633V394H523L497 273H601V166H470L434 0H318L354 166H242L207 0H90L125 166H27V273H150L178 394H72V502H199L242 696H361L317 502H427L470 696H587ZM407 393H293L266 272H379L407 393Z" />
<glyph unicode="$" glyph-name="dollar" horiz-adv-x="600" d="M340 674Q437 665 496 617T556 480V469H383V473Q383 499 365 516T308 534Q271 534 252 524T233 495Q233 473 254 462T320 440L400 420Q568 382 568 241Q568 138 508 84T340 21L355 -66H227L242 22Q148
32 88 83T28 224V234Q28 242 29 246H204L203 235Q203 206 222 188T287 169Q337 169 355 179T373 208Q373 229 351 240T287 262L208 280Q42 322 42 472Q42 555 97 607T242 671L227 757H355L340 674Z" />
<glyph unicode="%" glyph-name="percent" horiz-adv-x="713" d="M612 686L195 0H100L519 686H612ZM223 685T259 649T296 562V460Q296 409 260 373T172 337H150Q99 337 63 373T27 460V562Q27 613 63 649T150 685H172Q223 685 259 649ZM146 614T135 603T124 575V448Q124
431 135 420T161 409Q177 409 187 420T198 448V575Q198 592 188 603T161 614Q146 614 135 603ZM613 348T649 312T686 225V123Q686 90 669 62T624 16T562 -1H540Q489 -1 453 35T417 123V225Q417 276 453 312T540 348H562Q613 348 649 312ZM536 277T525 266T514 237V110Q514
94 525 83T551 71Q567 71 577 82T588 110V237Q588 254 578 265T551 277Q536 277 525 266Z" />
<glyph unicode="&amp;" glyph-name="ampersand" horiz-adv-x="729" d="M321 696T345 693V543Q328 548 316 548Q285 548 264 531T243 484Q243 462 259 442T307 421H428L482 540H619V421H699V279H619V0H300Q180 0 104 45T28 197Q28 321 151 358Q102 373 76 413T49
506Q49 567 84 610T176 674T295 696Q321 696 345 693ZM307 279Q265 279 246 257T227 210Q227 175 251 157T312 138H421V279H307Z" />
<glyph unicode="&apos;" glyph-name="quotesingle" horiz-adv-x="231" d="M193 686V539L146 396H85L38 539V686H193Z" />
<glyph unicode="(" glyph-name="parenleft" horiz-adv-x="313" d="M247 598T217 482T186 265Q186 164 216 46T297 -158H189Q112 -70 71 38T30 264Q30 381 71 489T189 686H297Q247 598 217 482Z" />
<glyph unicode=")" glyph-name="parenright" horiz-adv-x="313" d="M201 598T242 490T283 264Q283 147 242 39T124 -158H16Q66 -73 96 45T127 265Q127 366 97 482T16 686H124Q201 598 242 490Z" />
<glyph unicode="*" glyph-name="asterisk" horiz-adv-x="506" d="M312 686L297 533L445 593L480 483L330 448L430 335L330 265L251 396L173 265L73 335L173 448L26 483L65 593L205 533L192 686H312Z" />
<glyph unicode="+" glyph-name="plus" horiz-adv-x="615" d="M371 512V320H563V192H371V0H243V192H51V320H243V512H371Z" />
<glyph unicode="," glyph-name="comma" horiz-adv-x="287" d="M239 183V22L189 -165H95L132 0H48V183H239Z" />
<glyph unicode="-" glyph-name="hyphen" horiz-adv-x="352" d="M303 354V196H49V354H303Z" />
<glyph unicode="." glyph-name="period" horiz-adv-x="287" d="M239 183V0H48V183H239Z" />
<glyph unicode="/" glyph-name="slash" horiz-adv-x="652" d="M637 686L148 -171H16L506 686H637Z" />
<glyph unicode="0" glyph-name="zero" horiz-adv-x="615" d="M398 696T455 663T546 572T580 446V240Q580 172 547 115T456 24T330 -10H285Q217 -10 160 23T69 114T35 240V446Q35 514 68 571T159 662T285 696H330Q398 696 455 663ZM276 552T255 529T233 472V215Q233
182 254 159T307 135Q339 135 360 158T382 215V472Q382 505 361 528T308 552Q276 552 255 529Z" />
<glyph unicode="1" glyph-name="one" horiz-adv-x="615" d="M421 153H567V0H73V153H225V473H73V588Q136 592 215 623T354 696H421V153Z" />
<glyph unicode="2" glyph-name="two" horiz-adv-x="615" d="M397 696T452 668T538 589T569 474Q569 402 532 351T416 244L307 168H570V0H35V36Q35 94 53 134T115 209L313 365Q367 408 367 470Q367 499 347 519T297 540H284Q255 540 235 520T214 470V442H38V461Q38
527 68 580T156 665T293 696H324Q397 696 452 668Z" />
<glyph unicode="3" glyph-name="three" horiz-adv-x="615" d="M394 696T448 671T533 604T564 510Q564 458 539 418T469 359Q524 340 554 296T584 189Q584 133 554 88T464 17T324 -10H282Q201 -10 142 16T53 88T22 188V209H198Q198 178 218 159T278 139H305Q344
139 364 160T385 217Q385 252 366 270T315 289H211V412H299Q330 412 349 430T369 484Q369 510 349 528T299 547H281Q252 547 232 529T211 484H44V509Q44 561 75 603T163 671T294 696H324Q394 696 448 671Z" />
<glyph unicode="4" glyph-name="four" horiz-adv-x="615" d="M347 646T313 568T233 415T152 298H302V400Q328 436 362 512T407 630H490V298H588V151H490V0H302V151H22V300Q61 370 81 420L111 494Q163 622 178 696H355Q347 646 313 568Z" />
<glyph unicode="5" glyph-name="five" horiz-adv-x="615" d="M529 516H238L230 414Q250 432 282 445T357 459Q458 459 519 397T580 225Q580 160 547 106T455 21T320 -10H290Q211 -10 152 21T62 105T30 224H206Q206 191 229 168T286 144H303Q336 144 359 167T383
224V235Q383 268 360 291T303 315H289Q266 315 253 308T231 292T218 281L60 303L89 686H529V516Z" />
<glyph unicode="6" glyph-name="six" horiz-adv-x="615" d="M393 696T448 670T535 591T568 466H390V471Q390 502 370 524T319 546H313Q282 546 259 524T236 471V385Q260 411 295 424T361 437Q424 437 475 414T555 343T585 230Q585 159 551 105T458 20T327 -10H299Q228
-10 169 22T74 112T39 240V446Q39 517 74 574T168 663T299 696H327Q393 696 448 670ZM311 321Q280 321 258 299T236 246V205Q236 174 258 152T311 130H317Q348 130 370 152T392 205V246Q392 277 370 299T317 321H311Z" />
<glyph unicode="7" glyph-name="seven" horiz-adv-x="615" d="M570 595Q468 455 410 326T351 59V0H129Q129 130 190 255T353 514H61V686H570V595Z" />
<glyph unicode="8" glyph-name="eight" horiz-adv-x="615" d="M376 696T432 673T521 604T554 495Q554 458 544 433T519 390T476 351V347Q527 316 552 281T577 189Q577 93 505 42T307 -10Q186 -10 112 42T38 189Q38 246 63 281T139 347V351Q99 382 80 412T61 495Q61
558 93 603T182 672T307 696Q376 696 432 673ZM278 566T258 546T237 496V473Q237 444 257 424T308 403Q337 403 357 423T378 473V496Q378 525 358 545T307 566Q278 566 258 546ZM278 295T258 275T237 225V192Q237 163 257 143T308 122Q337 122 357 142T378 192V225Q378
254 358 274T307 295Q278 295 258 275Z" />
<glyph unicode="9" glyph-name="nine" horiz-adv-x="615" d="M387 696T446 664T541 574T576 446V240Q576 169 541 112T447 23T316 -10H288Q222 -10 167 16T80 95T47 220H225V215Q225 184 245 162T296 140H302Q333 140 356 162T379 215V301Q355 275 320 262T254
249Q191 249 140 272T60 343T30 456Q30 526 64 580T157 665T288 696H316Q387 696 446 664ZM298 556Q267 556 245 534T223 481V440Q223 409 245 387T298 365H304Q335 365 357 387T379 440V481Q379 512 357 534T304 556H298Z" />
<glyph unicode=":" glyph-name="colon" horiz-adv-x="309" d="M250 511V328H59V511H250ZM250 183V0H59V183H250Z" />
<glyph unicode=";" glyph-name="semicolon" horiz-adv-x="308" d="M250 511V328H59V511H250ZM250 183V22L200 -165H106L143 0H59V183H250Z" />
<glyph unicode="&lt;" glyph-name="less" horiz-adv-x="615" d="M553 521V382L205 254L553 127V-11L44 185V324L553 521Z" />
<glyph unicode="=" glyph-name="equal" horiz-adv-x="615" d="M563 429V301H51V429H563ZM563 209V81H51V209H563Z" />
<glyph unicode="&gt;" glyph-name="greater" horiz-adv-x="615" d="M61 521L570 324V185L61 -11V127L409 254L61 382V521Z" />
<glyph unicode="?" glyph-name="question" horiz-adv-x="581" d="M375 696T430 669T519 592T553 480Q553 426 530 388T467 322L426 292Q402 274 392 264T382 240V218H211V277Q211 303 226 324T273 377Q306 409 323 433T341 488Q341 517 323 537T275 558Q238 558
224 535T210 474V460Q210 452 211 447H27Q26 454 25 463T24 485Q24 548 61 596T156 670T275 696H313Q375 696 430 669ZM397 183V0H206V183H397Z" />
<glyph unicode="@" glyph-name="at" horiz-adv-x="906" d="M656 697T767 605T879 320Q879 211 847 145T766 50T660 22Q606 22 577 42T531 99Q501 64 465 44T376 23Q302 23 255 52T207 166Q207 231 244 266T348 315T521 329V356Q521 383 504 397T460 412Q438 412
419 400T400 368V364H222Q221 367 221 378Q221 418 248 450T327 502T446 521H477Q586 521 643 479T701 369V171Q701 155 711 146T734 136Q760 136 783 173T806 321Q806 482 716 559T468 636Q297 636 202 542T107 261Q107 83 187 -4T434 -92Q470 -92 521 -83T599
-60V-126Q569 -137 519 -145T434 -153Q243 -153 139 -51T34 262Q34 414 92 511T247 652T469 697Q656 697 767 605ZM460 243T431 227T401 181Q401 136 457 136Q484 136 502 154T521 202V243Q460 243 431 227Z" />
<glyph unicode="A" glyph-name="A" horiz-adv-x="709" d="M714 0H496L455 122H237L197 0H-5L224 686H485L714 0ZM344 475L285 267H407L349 475H344Z" />
<glyph unicode="B" glyph-name="B" horiz-adv-x="656" d="M482 686T523 664T589 603T613 518Q613 448 582 411T498 358V354Q629 324 629 183Q629 133 604 91T535 25T439 0H57V686H433Q482 686 523 664ZM250 423H365Q386 423 400 437T415 473V490Q415 511 401 525T365
540H250V423ZM250 159H377Q398 159 412 173T427 209V227Q427 248 413 262T377 277H250V159Z" />
<glyph unicode="C" glyph-name="C" horiz-adv-x="683" d="M452 696T517 664T621 566T659 405H462V440Q462 486 434 513T362 540H357Q315 540 286 511T257 440V247Q257 205 286 176T357 147H371Q414 147 442 173T471 247V280H659Q659 192 623 126T522 25T377 -10H349Q260
-10 188 26T73 130T31 290V396Q31 483 73 551T187 658T341 696H369Q452 696 517 664Z" />
<glyph unicode="D" glyph-name="D" horiz-adv-x="696" d="M448 686T516 646T625 537T666 386V300Q666 218 626 150T517 41T366 0H57V686H366Q448 686 516 646ZM269 159H346Q388 159 417 188T446 259V430Q446 472 417 501T346 530H269V159Z" />
<glyph unicode="E" glyph-name="E" horiz-adv-x="600" d="M552 528H263V428H541V275H263V164H552L572 0H57V686H572L552 528Z" />
<glyph unicode="F" glyph-name="F" horiz-adv-x="562" d="M533 523H262V411H514V257H262V0H57V686H553L533 523Z" />
<glyph unicode="G" glyph-name="G" horiz-adv-x="699" d="M452 696T516 664T618 575T656 446V439H462Q462 490 434 515T362 540H357Q315 540 286 511T257 440V247Q257 205 286 176T357 147H375Q417 147 439 173T462 248H346V384H656V144Q656 65 659 40L663 0H551L523
73Q491 37 437 14T327 -10H317Q236 -10 171 30T68 139T31 290V396Q31 479 71 547T185 656T350 696H378Q452 696 516 664Z" />
<glyph unicode="H" glyph-name="H" horiz-adv-x="697" d="M640 0H430V267H268V0H57V686H267V433H429V686H640V0Z" />
<glyph unicode="I" glyph-name="I" horiz-adv-x="446" d="M410 539H329V148H410V0H36V148H117V539H36V686H410V539Z" />
<glyph unicode="J" glyph-name="J" horiz-adv-x="545" d="M492 89T429 40T262 -10H231Q128 -10 70 39T11 180V248H204V186Q204 165 215 153T245 140Q263 140 275 152T287 186V686H492V180Q492 89 429 40Z" />
<glyph unicode="K" glyph-name="K" horiz-adv-x="685" d="M480 411L695 0H460L341 248L261 152V0H57V686H261V415L457 686H689L480 411Z" />
<glyph unicode="L" glyph-name="L" horiz-adv-x="544" d="M269 168H518L538 0H57V686H269V168Z" />
<glyph unicode="M" glyph-name="M" horiz-adv-x="1004" d="M947 0H737V440H733L613 0H372L253 440H248V0H57V686H401L500 320H504L601 686H947V0Z" />
<glyph unicode="N" glyph-name="N" horiz-adv-x="696" d="M639 0H459L253 297L250 304V0H57V686H233L443 382L445 375V686H639V0Z" />
<glyph unicode="O" glyph-name="O" horiz-adv-x="718" d="M469 694T537 654T646 545T687 394V290Q687 208 647 140T538 31T387 -10H331Q249 -10 181 30T72 139T31 290V394Q31 476 71 544T180 653T331 694H387Q469 694 537 654ZM315 540T286 511T257 440V247Q257
205 286 176T357 147H362Q404 147 433 176T462 247V440Q462 482 433 511T362 540H357Q315 540 286 511Z" />
<glyph unicode="P" glyph-name="P" horiz-adv-x="645" d="M479 686T527 658T604 582T632 476V454Q632 397 604 349T528 272T422 244H267V0H57V686H422Q479 686 527 658ZM267 397H359Q387 397 403 415T419 457V469Q419 492 404 510T359 529H267V397Z" />
<glyph unicode="Q" glyph-name="Q" horiz-adv-x="718" d="M469 694T537 654T646 545T687 394V290Q687 192 631 114T484 6Q494 -15 511 -27T562 -39Q586 -39 619 -33T675 -19L688 -15V-120Q608 -162 507 -162Q436 -162 387 -138T310 -78T273 -4Q205 9 150 51T63
155T31 290V394Q31 476 71 544T180 653T331 694H387Q469 694 537 654ZM315 540T286 511T257 440V247Q257 205 286 176T357 147H362Q404 147 433 176T462 247V440Q462 482 433 511T362 540H357Q315 540 286 511Z" />
<glyph unicode="R" glyph-name="R" horiz-adv-x="682" d="M491 686T534 665T605 605T632 516Q632 480 616 445T571 385T509 354V349Q564 332 591 286T619 173Q619 126 628 93T670 50V9Q624 -10 550 -10Q479 -10 444 19T409 119Q409 185 393 225T320 266H262V0H57V686H442Q491
686 534 665ZM262 419H368Q389 419 403 433T418 469V479Q418 500 404 514T368 529H262V419Z" />
<glyph unicode="S" glyph-name="S" horiz-adv-x="651" d="M453 696T531 643T610 486V474H418V478Q418 507 398 525T335 544Q294 544 273 533T252 502Q252 479 276 466T348 442L437 422Q623 380 623 229Q623 106 542 48T318 -10Q239 -10 173 14T66 87T25 210V222Q25
230 26 234H220Q219 231 219 222Q219 191 240 171T312 151Q367 151 387 162T407 194Q407 218 379 230T291 256Q215 272 165 291T77 355T40 478Q40 548 78 597T183 671T331 696Q453 696 531 643Z" />
<glyph unicode="T" glyph-name="T" horiz-adv-x="586" d="M571 521H397V0H189V521H15V686H571V521Z" />
<glyph unicode="U" glyph-name="U" horiz-adv-x="687" d="M635 149T602 98T507 18T365 -10H322Q241 -10 180 18T86 97T52 218V686H263V221Q263 188 286 167T344 146Q378 146 401 167T425 221V686H635V218Q635 149 602 98Z" />
<glyph unicode="V" glyph-name="V" horiz-adv-x="656" d="M452 0H202L-3 686H215L335 260H339L458 686H660L452 0Z" />
<glyph unicode="W" glyph-name="W" horiz-adv-x="1021" d="M837 0H599L516 329H510L427 0H185L-2 686H215L312 305H316L414 686H629L725 305H729L826 686H1023L837 0Z" />
<glyph unicode="X" glyph-name="X" horiz-adv-x="675" d="M475 362L690 0H446L330 213H326L211 0H-15L200 363L7 686H250L345 511H349L444 686H669L475 362Z" />
<glyph unicode="Y" glyph-name="Y" horiz-adv-x="646" d="M428 262V0H219V262L-9 686H227L330 461H335L440 686H655L428 262Z" />
<glyph unicode="Z" glyph-name="Z" horiz-adv-x="608" d="M577 625L314 161H585V0H14V61L282 526H38V686H577V625Z" />
<glyph unicode="[" glyph-name="bracketleft" horiz-adv-x="318" d="M294 686V603H206V-78H294V-161H57V686H294Z" />
<glyph unicode="\" glyph-name="backslash" horiz-adv-x="652" d="M146 686L636 -171H504L15 686H146Z" />
<glyph unicode="]" glyph-name="bracketright" horiz-adv-x="318" d="M261 686V-161H24V-78H112V603H24V686H261Z" />
<glyph unicode="^" glyph-name="asciicircum" horiz-adv-x="600" d="M369 511L566 0H428L301 350L173 0H33L230 511H369Z" />
<glyph unicode="_" glyph-name="underscore" horiz-adv-x="668" d="M584 -65V-127H84V-65H584Z" />
<glyph unicode="`" glyph-name="grave" horiz-adv-x="333" d="M195 720L286 575H168L42 717L44 720H195Z" />
<glyph unicode="a" glyph-name="a" horiz-adv-x="624" d="M428 521T489 476T551 359V148Q551 129 560 120T582 111Q601 111 617 120V13Q585 -10 516 -10Q452 -10 415 11T369 71Q337 34 299 12T204 -10Q124 -10 74 21T24 143Q24 212 63 249T174 301T359 316V345Q359
373 341 389T294 405Q271 405 251 392T230 358V354H40Q39 357 39 368Q39 411 68 445T152 500T279 521H312Q428 521 489 476ZM293 225T262 208T231 159Q231 111 291 111Q319 111 339 130T359 181V225Q293 225 262 208Z" />
<glyph unicode="b" glyph-name="b" horiz-adv-x="601" d="M267 482T301 501T380 521Q435 521 478 492T547 405T573 261V250Q573 165 545 107T467 19T356 -10Q248 -10 188 75L120 0H50V720H248V458Q267 482 301 501ZM284 396T266 376T248 326V181Q248 152 266 132T310
111Q336 111 354 131T372 181V326Q372 355 354 375T310 396Q284 396 266 376Z" />
<glyph unicode="c" glyph-name="c" horiz-adv-x="569" d="M380 521T434 493T516 416T545 304H376V330Q376 359 356 379T307 400Q278 400 258 380T238 330V181Q238 152 258 132T308 111H320Q349 111 368 131T387 181V207H545Q545 104 481 47T307 -10H278Q211 -10
153 23T61 112T26 235V276Q26 342 60 398T151 488T276 521H306Q380 521 434 493Z" />
<glyph unicode="d" glyph-name="d" horiz-adv-x="601" d="M393 0L375 59Q320 -10 246 -10Q184 -10 135 19T57 106T28 250V261Q28 346 53 404T122 492T221 521Q315 521 353 458V720H551V0H393ZM265 396T247 376T229 326V181Q229 152 247 132T291 111Q317 111 335
131T353 181V326Q353 355 335 375T291 396Q265 396 247 376Z" />
<glyph unicode="e" glyph-name="e" horiz-adv-x="601" d="M402 521T457 492T542 410T572 291V229H239V181Q239 147 260 129T316 111Q351 111 369 132T388 192H571Q571 135 542 89T456 17T322 -10H307Q227 -10 164 19T64 105T27 240V271Q27 349 61 405T158 491T300
521H325Q402 521 457 492ZM279 400T259 380T239 330V316H377V330Q377 359 357 379T308 400Q279 400 259 380Z" />
<glyph unicode="f" glyph-name="f" horiz-adv-x="419" d="M301 728T342 722T406 706V596Q395 600 375 603T344 606Q318 606 303 596T287 548V511H407V369H287V0H89V369H25V511H89V577Q89 655 138 691T272 728Q301 728 342 722Z" />
<glyph unicode="g" glyph-name="g" horiz-adv-x="590" d="M589 545T562 514T479 468Q506 447 520 419T535 361Q535 317 508 280T435 222T335 200H266Q237 200 223 192T209 170Q209 155 221 147T266 139H429Q509 139 549 97T589 -17Q589 -62 562 -101T488 -164T389
-188H124Q75 -188 40 -153T4 -68V-63Q4 -28 26 1T80 46Q58 61 45 84T32 133Q32 170 58 200T124 240Q89 263 68 294T47 360Q47 431 106 476T277 521H305Q341 521 371 515Q409 540 425 563T441 603H589Q589 545 562 514ZM269 423T252 405T234 360Q234 334 251 316T295
297Q321 297 338 315T356 360Q356 386 339 404T295 423Q269 423 252 405ZM197 0T183 -12T168 -41Q168 -58 182 -70T218 -83H361Q382 -83 396 -71T411 -42Q411 -25 397 -13T361 0H218Q197 0 183 -12Z" />
<glyph unicode="h" glyph-name="h" horiz-adv-x="599" d="M296 521T374 521H402Q443 521 477 501T532 447T552 371V0H354V320Q354 345 339 362T301 380Q279 380 264 363T248 320V0H50V720H248V451Q296 521 374 521Z" />
<glyph unicode="i" glyph-name="i" horiz-adv-x="297" d="M247 577H50V720H247V577ZM247 0H50V510H247V0Z" />
<glyph unicode="j" glyph-name="j" horiz-adv-x="299" d="M249 720V577H50V720H249ZM249 -26Q249 -105 200 -146T66 -187Q38 -187 -3 -181T-68 -165V-53Q-57 -58 -38 -61T-6 -65Q19 -65 34 -51T50 4V510H249V-26Z" />
<glyph unicode="k" glyph-name="k" horiz-adv-x="603" d="M248 720V321L378 511H604L425 280L607 0H374L284 145L248 114V0H50V720H248Z" />
<glyph unicode="l" glyph-name="l" horiz-adv-x="298" d="M248 720V0H50V720H248Z" />
<glyph unicode="m" glyph-name="m" horiz-adv-x="871" d="M715 521T749 501T804 447T824 371V0H630V324Q630 348 617 363T582 379Q561 379 548 364T534 324V0H340V324Q340 348 327 363T292 379Q271 379 258 364T244 324V0H50V511H198L219 437Q284 521 357 521H384Q426
521 461 500T515 443Q536 479 570 500T647 521H674Q715 521 749 501Z" />
<glyph unicode="n" glyph-name="n" horiz-adv-x="599" d="M443 521T477 501T532 447T552 371V0H354V320Q354 345 339 362T301 380Q279 380 264 363T248 320V0H50V511H199L219 437Q274 521 374 521H402Q443 521 477 501Z" />
<glyph unicode="o" glyph-name="o" horiz-adv-x="614" d="M398 521T458 489T553 398T588 266V245Q588 170 554 112T459 22T323 -10H291Q216 -10 156 22T61 113T26 245V266Q26 340 60 398T155 488T291 521H323Q398 521 458 489ZM278 400T258 380T238 330V181Q238
152 258 132T307 111Q336 111 356 131T376 181V330Q376 359 356 379T307 400Q278 400 258 380Z" />
<glyph unicode="p" glyph-name="p" horiz-adv-x="601" d="M417 521T466 492T544 405T573 261V250Q573 165 548 107T479 19T380 -10Q286 -10 248 53V-181H50V511H208L226 452Q279 521 355 521Q417 521 466 492ZM284 400T266 380T248 330V185Q248 156 266 136T310
115Q336 115 354 135T372 185V330Q372 359 354 379T310 400Q284 400 266 380Z" />
<glyph unicode="q" glyph-name="q" horiz-adv-x="600" d="M299 520T337 502T404 443L480 511H550V-180H352V52Q297 -11 220 -11Q165 -11 122 18T53 105T27 249V260Q27 345 55 403T133 491T244 520Q299 520 337 502ZM264 399T246 379T228 329V184Q228 155 246 135T290
114Q316 114 334 134T352 184V329Q352 358 334 378T290 399Q264 399 246 379Z" />
<glyph unicode="r" glyph-name="r" horiz-adv-x="506" d="M421 521T457 485T494 384V367L492 329L490 304H328V328Q328 349 316 363T286 378Q268 378 256 364T243 328V0H50V511H198L220 437Q226 449 243 469T289 505T355 521Q421 521 457 485Z" />
<glyph unicode="s" glyph-name="s" horiz-adv-x="559" d="M352 521T402 506T487 459T521 384Q521 375 520 368T519 358H355Q355 382 334 392T285 403Q211 403 211 374Q211 356 233 350T308 337Q376 329 420 317T498 271T532 170Q532 76 464 33T295 -10H243Q187
-10 137 7T54 61T22 149V158Q22 164 23 167H185V163Q185 134 211 123T271 111Q301 111 328 117T356 142Q356 161 333 168T257 184Q193 192 148 205T71 252T38 349Q38 407 73 445T163 502T273 521H304Q352 521 402 506Z" />
<glyph unicode="t" glyph-name="t" horiz-adv-x="419" d="M277 511H397V369H277V180Q277 140 292 126T334 111Q346 111 365 114T396 123V11Q373 1 332 -5T262 -11Q174 -11 127 21T79 130V369H23V511H87L156 674H277V511Z" />
<glyph unicode="u" glyph-name="u" horiz-adv-x="628" d="M548 148Q548 129 557 120T579 111Q598 111 614 120V13Q582 -10 513 -10Q449 -10 415 10T366 71Q349 45 310 18T224 -10H196Q155 -10 121 10T66 64T46 140V511H244V191Q244 166 259 149T297 131Q319 131
334 148T350 191V511H548V148Z" />
<glyph unicode="v" glyph-name="v" horiz-adv-x="559" d="M560 511L393 0H164L-1 511H210L285 219H292L367 511H560Z" />
<glyph unicode="w" glyph-name="w" horiz-adv-x="855" d="M852 511L706 0H482L433 213H425L377 0H149L4 511H210L267 253H274L335 511H535L595 253H603L660 511H852Z" />
<glyph unicode="x" glyph-name="x" horiz-adv-x="585" d="M579 511L423 265L590 0H363L287 143H283L206 0H-7L163 270L11 511H238L300 393H304L366 511H579Z" />
<glyph unicode="y" glyph-name="y" horiz-adv-x="553" d="M384 36Q347 -66 283 -126T130 -187Q62 -187 31 -172V-43Q43 -49 64 -53T106 -57Q146 -57 161 -37T184 15L-4 511H207L286 246H294L361 511H556L384 36Z" />
<glyph unicode="z" glyph-name="z" horiz-adv-x="498" d="M466 511V451L277 124H474V0H22V63L210 387H33V511H466Z" />
<glyph unicode="{" glyph-name="braceleft" horiz-adv-x="343" d="M320 618Q247 618 244 577L234 371Q229 268 133 268V259Q229 259 234 156L244 -49Q247 -91 320 -91V-159H239Q182 -159 140 -130T98 -47V169Q98 197 76 210T21 224V303Q51 303 74 317T98 360V574Q98
628 140 657T239 686H320V618Z" />
<glyph unicode="|" glyph-name="bar" horiz-adv-x="232" d="M176 720V-199H56V720H176Z" />
<glyph unicode="}" glyph-name="braceright" horiz-adv-x="343" d="M161 686T203 657T245 574V360Q245 332 267 318T321 303V224Q291 224 268 211T245 169V-47Q245 -101 203 -130T104 -159H23V-91Q96 -91 99 -49L109 156Q114 259 210 259V268Q114 268 109 371L99
577Q96 618 23 618V686H104Q161 686 203 657Z" />
<glyph unicode="~" glyph-name="asciitilde" horiz-adv-x="648" d="M607 280Q581 249 538 226T444 202Q416 202 390 210T327 235Q287 252 261 260T206 268Q155 268 114 245T43 190V316Q72 347 113 370T206 394Q234 394 260 386T323 361Q363 344 389 336T444 328Q495
328 538 351T607 406V280Z" />
<glyph unicode="&#xa0;" glyph-name="uni00A0" horiz-adv-x="192" />
<glyph unicode="&#xa1;" glyph-name="exclamdown" horiz-adv-x="297" d="M244 511V328H53V511H244ZM213 278L267 -177H29L86 278H213Z" />
<glyph unicode="&#xa2;" glyph-name="cent" horiz-adv-x="579" d="M349 605Q445 594 498 536T551 390H382V416Q382 445 362 465T313 486Q284 486 264 466T244 416V267Q244 238 264 218T314 197H326Q355 197 374 217T393 267V293H551Q551 198 498 143T349 78L364
-10H233L250 78Q191 86 141 120T62 208T32 321V362Q32 423 61 475T140 562T250 605L233 694H362L349 605Z" />
<glyph unicode="&#xa3;" glyph-name="sterling" horiz-adv-x="667" d="M453 700T512 673T605 598T640 494V466H441V494Q441 518 424 535T383 552Q359 552 342 535T325 494V413H421V266H324L304 147H586V0H63V147H127V266H33V413H127V493Q127 550 161 597T254 672T383
700Q453 700 512 673Z" />
<glyph unicode="&#xa4;" glyph-name="currency" horiz-adv-x="607" d="M565 535L509 479Q529 458 540 420T551 339Q551 298 540 261T507 197L563 141L503 81L445 139Q422 116 384 104T303 91Q261 91 223 103T161 137L104 80L43 141L101 199Q79 224 67 260T55 339Q55
382 66 419T101 479L43 537L106 600L163 543Q186 563 224 575T303 587Q344 587 381 575T439 545L497 603L565 535ZM248 477T212 437T175 339Q175 281 212 241T303 201Q359 201 395 241T431 339Q431 397 395 437T303 477Q248 477 212 437Z" />
<glyph unicode="&#xa5;" glyph-name="yen" horiz-adv-x="710" d="M686 686L563 457H647V364H514L488 317H647V224H459V0H250V224H68V317H221L195 364H68V457H145L22 686H258L361 461H366L471 686H686Z" />
<glyph unicode="&#xa6;" glyph-name="brokenbar" horiz-adv-x="272" d="M211 686V412H61V686H211ZM211 274V0H61V274H211Z" />
<glyph unicode="&#xa7;" glyph-name="section" horiz-adv-x="565" d="M370 696T442 660T514 543V533H350Q350 556 331 567T287 578Q262 578 240 571T217 542Q217 505 299 472L376 440Q535 374 535 257Q535 214 514 173T456 109Q486 92 503 56T521 -18Q521 -77
486 -114T397 -168T286 -185Q194 -185 122 -149T50 -32V-25H214Q214 -47 233 -57T277 -67Q302 -67 324 -60T347 -31Q347 -11 326 5T265 38L188 71Q116 101 73 144T29 254Q29 297 50 338T108 402Q77 419 60 455T43 529Q43 588 78 625T167 679T278 696Q370 696 442
660ZM197 337T189 324T181 294Q181 257 221 231T329 176Q347 169 358 164Q372 170 380 183T388 213Q388 250 349 276T246 328Q224 336 211 343Q197 337 189 324Z" />
<glyph unicode="&#xa8;" glyph-name="dieresis" horiz-adv-x="440" d="M189 750V603H37V750H189ZM409 750V603H257V750H409Z" />
<glyph unicode="&#xa9;" glyph-name="copyright" horiz-adv-x="770" d="M481 696T562 649T691 521T739 344Q739 247 692 166T563 38T385 -10Q288 -10 207 37T79 166T31 344Q31 440 78 521T207 649T385 696Q481 696 562 649ZM300 632T238 597T141 496T107 344Q107
257 141 192T237 91T385 55Q468 55 531 90T628 191T663 344Q663 430 629 495T531 596T385 632Q300 632 238 597ZM471 555T519 510T568 380H450V401Q450 428 433 444T387 461Q362 461 345 444T327 401V285Q327 260 344 243T387 225H396Q422 225 439 241T456 285V305H568Q568
226 521 179T399 131H382Q329 131 286 152T217 214T192 311V375Q192 428 217 469T285 532T378 555H394Q471 555 519 510Z" />
<glyph unicode="&#xaa;" glyph-name="ordfeminine" horiz-adv-x="420" d="M277 695T313 668T350 597V471Q350 460 356 455T369 449L382 451L390 454V390Q367 376 329 376Q291 376 269 389T241 425Q222 403 199 390T142 376Q95 376 65 394T34 468Q34 527 84 549T235
572V589Q235 606 225 615T196 625Q182 625 170 617T158 594H44L43 603Q43 643 82 669T187 695H207Q277 695 313 668ZM196 517T177 506T158 477Q158 449 194 449Q212 449 223 460T235 491V517Q196 517 177 506Z" />
<glyph unicode="&#xab;" glyph-name="guillemotleft" horiz-adv-x="442" d="M224 511L139 337L224 163H150L30 337L150 511H224ZM405 511L320 337L405 163H331L211 337L331 511H405Z" />
<glyph unicode="&#xac;" glyph-name="logicalnot" horiz-adv-x="623" d="M571 484V158H421V334H33V484H571Z" />
<glyph unicode="&#xad;" glyph-name="uni00AD" horiz-adv-x="352" d="M303 354V196H49V354H303Z" />
<glyph unicode="&#xae;" glyph-name="registered" horiz-adv-x="770" d="M481 696T562 649T691 521T739 344Q739 247 692 166T563 38T385 -10Q288 -10 207 37T79 166T31 344Q31 440 78 521T207 649T385 696Q481 696 562 649ZM300 632T238 597T141 496T107 344Q107
257 141 192T237 91T385 55Q468 55 531 90T628 191T663 344Q663 430 629 495T531 596T385 632Q300 632 238 597ZM497 547T531 519T565 445Q565 412 544 386T491 354L490 351Q524 340 540 310T557 239Q557 211 562 191T587 165V141Q559 129 515 129Q473 129 452
147T431 207Q431 249 421 276T377 303H343V135H220V547H451Q497 547 531 519ZM343 459V389H406Q419 389 427 397T436 419V429Q436 442 428 450T406 459H343Z" />
<glyph unicode="&#xaf;" glyph-name="overscore" horiz-adv-x="460" d="M389 736V662H71V736H389Z" />
<glyph unicode="&#xb0;" glyph-name="degree" horiz-adv-x="354" d="M217 696T251 676T306 621T327 546Q327 505 307 471T252 416T177 396Q136 396 102 416T47 470T27 546Q27 586 47 620T101 675T177 696Q217 696 251 676ZM151 607T133 589T114 545Q114 519 132
501T176 483Q202 483 220 501T238 545Q238 571 220 589T175 607Q151 607 133 589Z" />
<glyph unicode="&#xb1;" glyph-name="plusminus" horiz-adv-x="615" d="M371 512V400H563V272H371V160H243V272H51V400H243V512H371ZM563 128V0H51V128H563Z" />
<glyph unicode="&#xb2;" glyph-name="uni00B2" horiz-adv-x="370" d="M254 804T290 771T326 685Q326 644 306 615T244 556L185 512H326V422H39V441Q39 472 49 493T82 534L188 626Q217 652 217 683Q217 699 207 709T180 720H173Q157 720 146 710T135 683V668H40V678Q40
732 76 768T177 804H194Q254 804 290 771Z" />
<glyph unicode="&#xb3;" glyph-name="uni00B3" horiz-adv-x="355" d="M242 801T277 773T313 701Q313 672 299 649T262 616Q292 605 308 581T324 520Q324 473 288 443T184 413H162Q95 413 59 443T22 520V531H117Q117 514 127 504T160 493H174Q195 493 206 505T217
537Q217 578 179 578H124V644H171Q208 644 208 685Q208 700 198 710T171 721H161Q145 721 135 711T124 687H34V700Q34 743 71 772T168 801H184Q242 801 277 773Z" />
<glyph unicode="&#xb4;" glyph-name="acute" horiz-adv-x="333" d="M284 720L286 717L160 575H42L133 720H284Z" />
<glyph unicode="&#xb5;" glyph-name="uni00B5" horiz-adv-x="649" d="M558 148Q558 129 567 120T589 111Q608 111 624 120V13Q592 -10 523 -10Q459 -10 425 10T376 71Q362 51 325 27T246 -2L250 -26Q254 -56 254 -83V-161H56V511H254V191Q254 166 269 149T307
131Q329 131 344 148T360 191V511H558V148Z" />
<glyph unicode="&#xb6;" glyph-name="paragraph" horiz-adv-x="582" d="M548 607H482V-161H394V607H318V-161H230V253Q173 254 126 284T51 363T23 469Q23 528 52 578T130 657T239 686H548V607Z" />
<glyph unicode="&#xb7;" glyph-name="middot" horiz-adv-x="289" d="M240 380V197H49V380H240Z" />
<glyph unicode="&#xb8;" glyph-name="cedilla" horiz-adv-x="334" d="M222 -17T256 -37T291 -108Q291 -157 255 -177T173 -197Q136 -197 102 -188T47 -161L79 -107Q116 -139 164 -139Q204 -139 204 -108Q204 -92 196 -84T166 -76H148V-17H169Q222 -17 256 -37Z" />
<glyph unicode="&#xb9;" glyph-name="uni00B9" horiz-adv-x="339" d="M228 504H306V422H41V504H123V676H41V738Q75 740 117 757T192 796H228V504Z" />
<glyph unicode="&#xba;" glyph-name="ordmasculine" horiz-adv-x="397" d="M277 697T322 654T367 544V531Q367 463 322 421T208 378H189Q120 378 75 420T30 531V544Q30 611 75 654T189 697H208Q277 697 322 654ZM182 624T170 612T157 582V493Q157 475 169 463T199
451Q216 451 228 463T240 493V582Q240 599 228 611T199 624Q182 624 170 612Z" />
<glyph unicode="&#xbb;" glyph-name="guillemotright" horiz-adv-x="442" d="M111 511L231 337L111 163H37L122 337L37 511H111ZM292 511L412 337L292 163H218L303 337L218 511H292Z" />
<glyph unicode="&#xbc;" glyph-name="onequarter" horiz-adv-x="766" d="M651 686L234 0H145L565 686H651ZM224 393H302V311H37V393H119V565H37V627Q71 629 113 646T188 685H224V393ZM607 335T571 267T504 161H585V216Q598 235 616 275T641 339H686V161H739V81H686V0H585V81H434V162Q455
200 482 268T518 375H613Q607 335 571 267Z" />
<glyph unicode="&#xbd;" glyph-name="onehalf" horiz-adv-x="765" d="M221 394H299V312H34V394H116V566H34V628Q68 630 110 647T185 686H221V394ZM648 686L231 0H142L562 686H648ZM664 382T700 349T736 263Q736 222 716 193T654 134L595 90H736V0H449V19Q449 50
459 71T492 112L598 204Q627 230 627 261Q627 277 617 287T590 298H583Q567 298 556 288T545 261V246H450V256Q450 310 486 346T587 382H604Q664 382 700 349Z" />
<glyph unicode="&#xbe;" glyph-name="threequarters" horiz-adv-x="757" d="M247 693T282 665T318 593Q318 564 304 541T267 508Q297 497 313 473T329 412Q329 365 293 335T189 305H167Q100 305 64 335T27 412V423H122Q122 406 132 396T165 385H179Q200 385 211
397T222 429Q222 470 184 470H129V536H176Q213 536 213 577Q213 592 203 602T176 613H166Q150 613 140 603T129 579H39V592Q39 635 76 664T173 693H189Q247 693 282 665ZM642 686L225 0H136L556 686H642ZM598 335T562 267T495 161H576V216Q589 235 607 275T632
339H677V161H730V81H677V0H576V81H425V162Q446 200 473 268T509 375H604Q598 335 562 267Z" />
<glyph unicode="&#xbf;" glyph-name="questiondown" horiz-adv-x="577" d="M376 511V328H185V511H376ZM368 233Q368 207 353 186T306 133Q273 101 256 77T238 22Q238 -7 256 -27T304 -48Q340 -48 355 -26T371 32Q371 48 368 63H552Q553 56 554 47T555 25Q555 -38
518 -86T423 -160T304 -186H266Q204 -186 149 -159T60 -82T26 30Q26 127 111 188L153 218Q175 234 185 245T197 270V292H368V233Z" />
<glyph unicode="&#xc0;" glyph-name="Agrave" horiz-adv-x="709" d="M415 750H297L171 892L173 895H324L415 750ZM714 0H496L455 122H237L197 0H-5L224 686H485L714 0ZM344 475L285 267H407L349 475H344Z" />
<glyph unicode="&#xc1;" glyph-name="Aacute" horiz-adv-x="709" d="M545 893L419 751H301L392 896H543L545 893ZM714 0H496L455 122H237L197 0H-5L224 686H485L714 0ZM344 475L285 267H407L349 475H344Z" />
<glyph unicode="&#xc2;" glyph-name="Acircumflex" horiz-adv-x="709" d="M552 751H422L348 828L274 751H146L285 896H413L552 751ZM714 0H496L455 122H237L197 0H-5L224 686H485L714 0ZM344 475L285 267H407L349 475H344Z" />
<glyph unicode="&#xc3;" glyph-name="Atilde" horiz-adv-x="709" d="M570 857T551 824T500 771T430 750Q408 750 390 754T339 770L297 784Q277 790 257 790Q239 790 226 779T207 750H126Q126 786 145 819T196 872T266 893Q288 893 308 888T361 872Q386 863 404
858T439 853Q457 853 470 864T489 893H570Q570 857 551 824ZM714 0H496L455 122H237L197 0H-5L224 686H485L714 0ZM344 475L285 267H407L349 475H344Z" />
<glyph unicode="&#xc4;" glyph-name="Adieresis" horiz-adv-x="709" d="M314 750H162V897H314V750ZM534 750H382V897H534V750ZM714 0H496L455 122H237L197 0H-5L224 686H485L714 0ZM344 475L285 267H407L349 475H344Z" />
<glyph unicode="&#xc5;" glyph-name="Aring" horiz-adv-x="709" d="M395 937T425 908T455 836Q455 795 426 766T354 736Q312 736 283 765T253 836Q253 878 282 907T354 937Q395 937 425 908ZM339 871T329 861T319 835Q319 821 329 811T354 801Q369 801 379 811T389
837Q389 851 379 861T354 871Q339 871 329 861ZM714 0H496L455 122H237L197 0H-5L224 686H485L714 0ZM344 475L285 267H407L349 475H344Z" />
<glyph unicode="&#xc6;" glyph-name="AE" horiz-adv-x="1011" d="M963 528H603L622 428H952V275H652L674 164H963L983 0H487L463 122H245L187 0H-13L312 686H983L963 528ZM402 475L314 267H436L407 475H402Z" />
<glyph unicode="&#xc7;" glyph-name="Ccedilla" horiz-adv-x="683" d="M452 696T517 664T621 566T659 405H462V440Q462 486 434 513T362 540H357Q315 540 286 511T257 440V247Q257 205 286 176T357 147H371Q414 147 442 173T471 247V280H659Q659 192 623 126T522
25T377 -10H349Q260 -10 188 26T73 130T31 290V396Q31 483 73 551T187 658T341 696H369Q452 696 517 664ZM402 -17T436 -37T471 -108Q471 -157 435 -177T353 -197Q316 -197 282 -188T227 -161L259 -107Q296 -139 344 -139Q384 -139 384 -108Q384 -92 376 -84T346
-76H328V-17H349Q402 -17 436 -37Z" />
<glyph unicode="&#xc8;" glyph-name="Egrave" horiz-adv-x="600" d="M391 751H273L147 893L149 896H300L391 751ZM552 528H263V428H541V275H263V164H552L572 0H57V686H572L552 528Z" />
<glyph unicode="&#xc9;" glyph-name="Eacute" horiz-adv-x="600" d="M494 892L368 750H250L341 895H492L494 892ZM552 528H263V428H541V275H263V164H552L572 0H57V686H572L552 528Z" />
<glyph unicode="&#xca;" glyph-name="Ecircumflex" horiz-adv-x="600" d="M518 751H388L314 828L240 751H112L251 896H379L518 751ZM552 528H263V428H541V275H263V164H552L572 0H57V686H572L552 528Z" />
<glyph unicode="&#xcb;" glyph-name="Edieresis" horiz-adv-x="600" d="M277 751H125V898H277V751ZM497 751H345V898H497V751ZM552 528H263V428H541V275H263V164H552L572 0H57V686H572L552 528Z" />
<glyph unicode="&#xcc;" glyph-name="Igrave" horiz-adv-x="446" d="M281 750H163L37 892L39 895H190L281 750ZM410 539H329V148H410V0H36V148H117V539H36V686H410V539Z" />
<glyph unicode="&#xcd;" glyph-name="Iacute" horiz-adv-x="446" d="M406 892L280 750H162L253 895H404L406 892ZM410 539H329V148H410V0H36V148H117V539H36V686H410V539Z" />
<glyph unicode="&#xce;" glyph-name="Icircumflex" horiz-adv-x="446" d="M427 750H297L223 827L149 750H21L160 895H288L427 750ZM410 539H329V148H410V0H36V148H117V539H36V686H410V539Z" />
<glyph unicode="&#xcf;" glyph-name="Idieresis" horiz-adv-x="446" d="M189 750H37V897H189V750ZM409 750H257V897H409V750ZM410 539H329V148H410V0H36V148H117V539H36V686H410V539Z" />
<glyph unicode="&#xd0;" glyph-name="Eth" horiz-adv-x="721" d="M474 686T542 646T650 537T690 386V300Q690 218 650 150T542 41T392 0H83V297H7V391H83V686H392Q474 686 542 646ZM292 391H371V297H292V159H372Q414 159 443 188T472 259V430Q472 472 443 501T372
530H292V391Z" />
<glyph unicode="&#xd1;" glyph-name="Ntilde" horiz-adv-x="696" d="M574 857T555 824T504 771T434 750Q412 750 393 755T344 770L302 784Q288 788 261 790Q243 790 230 779T211 750H130Q130 786 149 819T200 872T270 893Q292 893 312 888T365 872Q390 863 408
858T443 853Q461 853 474 864T493 893H574Q574 857 555 824ZM639 0H459L253 297L250 304V0H57V686H233L443 382L445 375V686H639V0Z" />
<glyph unicode="&#xd2;" glyph-name="Ograve" horiz-adv-x="718" d="M425 750H307L181 892L183 895H334L425 750ZM469 694T537 654T646 545T687 394V290Q687 208 647 140T538 31T387 -10H331Q249 -10 181 30T72 139T31 290V394Q31 476 71 544T180 653T331 694H387Q469
694 537 654ZM315 540T286 511T257 440V247Q257 205 286 176T357 147H362Q404 147 433 176T462 247V440Q462 482 433 511T362 540H357Q315 540 286 511Z" />
<glyph unicode="&#xd3;" glyph-name="Oacute" horiz-adv-x="718" d="M541 892L415 750H297L388 895H539L541 892ZM469 694T537 654T646 545T687 394V290Q687 208 647 140T538 31T387 -10H331Q249 -10 181 30T72 139T31 290V394Q31 476 71 544T180 653T331 694H387Q469
694 537 654ZM315 540T286 511T257 440V247Q257 205 286 176T357 147H362Q404 147 433 176T462 247V440Q462 482 433 511T362 540H357Q315 540 286 511Z" />
<glyph unicode="&#xd4;" glyph-name="Ocircumflex" horiz-adv-x="718" d="M559 750H429L355 827L281 750H153L292 895H420L559 750ZM469 694T537 654T646 545T687 394V290Q687 208 647 140T538 31T387 -10H331Q249 -10 181 30T72 139T31 290V394Q31 476 71 544T180
653T331 694H387Q469 694 537 654ZM315 540T286 511T257 440V247Q257 205 286 176T357 147H362Q404 147 433 176T462 247V440Q462 482 433 511T362 540H357Q315 540 286 511Z" />
<glyph unicode="&#xd5;" glyph-name="Otilde" horiz-adv-x="718" d="M579 857T560 824T509 771T439 750Q417 750 399 754T348 770L306 784Q287 790 266 790Q248 790 235 779T216 750H135Q135 786 154 819T205 872T275 893Q297 893 317 888T370 872Q395 863 413
858T448 853Q466 853 479 864T498 893H579Q579 857 560 824ZM469 694T537 654T646 545T687 394V290Q687 208 647 140T538 31T387 -10H331Q249 -10 181 30T72 139T31 290V394Q31 476 71 544T180 653T331 694H387Q469 694 537 654ZM315 540T286 511T257 440V247Q257
205 286 176T357 147H362Q404 147 433 176T462 247V440Q462 482 433 511T362 540H357Q315 540 286 511Z" />
<glyph unicode="&#xd6;" glyph-name="Odieresis" horiz-adv-x="718" d="M329 750H177V897H329V750ZM549 750H397V897H549V750ZM469 694T537 654T646 545T687 394V290Q687 208 647 140T538 31T387 -10H331Q249 -10 181 30T72 139T31 290V394Q31 476 71 544T180
653T331 694H387Q469 694 537 654ZM315 540T286 511T257 440V247Q257 205 286 176T357 147H362Q404 147 433 176T462 247V440Q462 482 433 511T362 540H357Q315 540 286 511Z" />
<glyph unicode="&#xd7;" glyph-name="multiply" horiz-adv-x="615" d="M443 482L533 392L398 256L533 120L443 30L307 165L171 30L81 120L216 256L81 392L171 482L307 347L443 482Z" />
<glyph unicode="&#xd8;" glyph-name="Oslash" horiz-adv-x="718" d="M631 580T659 521T687 394V290Q687 208 647 140T538 31T387 -10H331Q267 -10 210 15L161 -65H53L132 65Q84 108 58 165T31 290V394Q31 476 71 544T180 653T331 694H387Q447 694 502 671L553
754H661L581 623Q631 580 659 521ZM315 540T286 511T257 440V269L414 526Q388 540 362 540H357Q315 540 286 511ZM327 147T357 147H362Q404 147 433 176T462 247V428L301 164Q327 147 357 147Z" />
<glyph unicode="&#xd9;" glyph-name="Ugrave" horiz-adv-x="687" d="M405 750H287L161 892L163 895H314L405 750ZM635 149T602 98T507 18T365 -10H322Q241 -10 180 18T86 97T52 218V686H263V221Q263 188 286 167T344 146Q378 146 401 167T425 221V686H635V218Q635
149 602 98Z" />
<glyph unicode="&#xda;" glyph-name="Uacute" horiz-adv-x="687" d="M529 892L403 750H285L376 895H527L529 892ZM635 149T602 98T507 18T365 -10H322Q241 -10 180 18T86 97T52 218V686H263V221Q263 188 286 167T344 146Q378 146 401 167T425 221V686H635V218Q635
149 602 98Z" />
<glyph unicode="&#xdb;" glyph-name="Ucircumflex" horiz-adv-x="687" d="M550 750H420L346 827L272 750H144L283 895H411L550 750ZM635 149T602 98T507 18T365 -10H322Q241 -10 180 18T86 97T52 218V686H263V221Q263 188 286 167T344 146Q378 146 401 167T425
221V686H635V218Q635 149 602 98Z" />
<glyph unicode="&#xdc;" glyph-name="Udieresis" horiz-adv-x="687" d="M311 750H159V897H311V750ZM531 750H379V897H531V750ZM635 149T602 98T507 18T365 -10H322Q241 -10 180 18T86 97T52 218V686H263V221Q263 188 286 167T344 146Q378 146 401 167T425 221V686H635V218Q635
149 602 98Z" />
<glyph unicode="&#xdd;" glyph-name="Yacute" horiz-adv-x="646" d="M514 892L388 750H270L361 895H512L514 892ZM428 262V0H219V262L-9 686H227L330 461H335L440 686H655L428 262Z" />
<glyph unicode="&#xde;" glyph-name="Thorn" horiz-adv-x="646" d="M422 583Q479 583 527 555T604 479T632 373V356Q632 299 604 251T528 174T422 146H266V0H57V686H266V583H422ZM266 294H369Q390 294 404 308T419 344V377Q419 398 405 412T369 427H266V294Z" />
<glyph unicode="&#xdf;" glyph-name="germandbls" horiz-adv-x="652" d="M413 728T470 710T564 649T601 541Q601 492 576 453T507 395V390Q561 371 594 324T627 219Q627 112 561 56T384 0H321V148H349Q382 148 406 173T430 234Q430 270 407 295T349 321H321V443H348Q375
443 393 462T412 511Q412 540 394 559T349 579Q322 579 304 560T285 511V-66H87V369H25V511H87Q91 578 128 627T225 702T349 728Q413 728 470 710Z" />
<glyph unicode="&#xe0;" glyph-name="agrave" horiz-adv-x="624" d="M358 575H240L114 717L116 720H267L358 575ZM428 521T489 476T551 359V148Q551 129 560 120T582 111Q601 111 617 120V13Q585 -10 516 -10Q452 -10 415 11T369 71Q337 34 299 12T204 -10Q124
-10 74 21T24 143Q24 212 63 249T174 301T359 316V345Q359 373 341 389T294 405Q271 405 251 392T230 358V354H40Q39 357 39 368Q39 411 68 445T152 500T279 521H312Q428 521 489 476ZM293 225T262 208T231 159Q231 111 291 111Q319 111 339 130T359 181V225Q293
225 262 208Z" />
<glyph unicode="&#xe1;" glyph-name="aacute" horiz-adv-x="624" d="M489 717L363 575H245L336 720H487L489 717ZM428 521T489 476T551 359V148Q551 129 560 120T582 111Q601 111 617 120V13Q585 -10 516 -10Q452 -10 415 11T369 71Q337 34 299 12T204 -10Q124
-10 74 21T24 143Q24 212 63 249T174 301T359 316V345Q359 373 341 389T294 405Q271 405 251 392T230 358V354H40Q39 357 39 368Q39 411 68 445T152 500T279 521H312Q428 521 489 476ZM293 225T262 208T231 159Q231 111 291 111Q319 111 339 130T359 181V225Q293
225 262 208Z" />
<glyph unicode="&#xe2;" glyph-name="acircumflex" horiz-adv-x="624" d="M504 575H374L300 652L226 575H98L237 720H365L504 575ZM428 521T489 476T551 359V148Q551 129 560 120T582 111Q601 111 617 120V13Q585 -10 516 -10Q452 -10 415 11T369 71Q337 34 299
12T204 -10Q124 -10 74 21T24 143Q24 212 63 249T174 301T359 316V345Q359 373 341 389T294 405Q271 405 251 392T230 358V354H40Q39 357 39 368Q39 411 68 445T152 500T279 521H312Q428 521 489 476ZM293 225T262 208T231 159Q231 111 291 111Q319 111 339 130T359
181V225Q293 225 262 208Z" />
<glyph unicode="&#xe3;" glyph-name="atilde" horiz-adv-x="624" d="M523 684T504 651T453 598T383 577Q345 577 292 596L250 610Q227 617 210 617Q192 617 179 606T160 577H79Q79 613 98 646T149 699T219 720Q241 720 261 715T314 699Q339 690 357 685T392 680Q410
680 423 691T442 720H523Q523 684 504 651ZM428 521T489 476T551 359V148Q551 129 560 120T582 111Q601 111 617 120V13Q585 -10 516 -10Q452 -10 415 11T369 71Q337 34 299 12T204 -10Q124 -10 74 21T24 143Q24 212 63 249T174 301T359 316V345Q359 373 341 389T294
405Q271 405 251 392T230 358V354H40Q39 357 39 368Q39 411 68 445T152 500T279 521H312Q428 521 489 476ZM293 225T262 208T231 159Q231 111 291 111Q319 111 339 130T359 181V225Q293 225 262 208Z" />
<glyph unicode="&#xe4;" glyph-name="adieresis" horiz-adv-x="624" d="M263 573H111V720H263V573ZM483 573H331V720H483V573ZM428 521T489 476T551 359V148Q551 129 560 120T582 111Q601 111 617 120V13Q585 -10 516 -10Q452 -10 415 11T369 71Q337 34 299 12T204
-10Q124 -10 74 21T24 143Q24 212 63 249T174 301T359 316V345Q359 373 341 389T294 405Q271 405 251 392T230 358V354H40Q39 357 39 368Q39 411 68 445T152 500T279 521H312Q428 521 489 476ZM293 225T262 208T231 159Q231 111 291 111Q319 111 339 130T359 181V225Q293
225 262 208Z" />
<glyph unicode="&#xe5;" glyph-name="aring" horiz-adv-x="624" d="M337 760T367 731T397 659Q397 618 368 589T296 559Q254 559 225 588T195 659Q195 701 224 730T296 760Q337 760 367 731ZM281 694T271 684T261 658Q261 644 271 634T296 624Q311 624 321 634T331
660Q331 674 321 684T296 694Q281 694 271 684ZM428 521T489 476T551 359V148Q551 129 560 120T582 111Q601 111 617 120V13Q585 -10 516 -10Q452 -10 415 11T369 71Q337 34 299 12T204 -10Q124 -10 74 21T24 143Q24 212 63 249T174 301T359 316V345Q359 373 341
389T294 405Q271 405 251 392T230 358V354H40Q39 357 39 368Q39 411 68 445T152 500T279 521H312Q428 521 489 476ZM293 225T262 208T231 159Q231 111 291 111Q319 111 339 130T359 181V225Q293 225 262 208Z" />
<glyph unicode="&#xe6;" glyph-name="ae" horiz-adv-x="924" d="M725 521T780 492T865 410T895 291V229H562V181Q562 147 583 129T639 111Q674 111 692 132T711 192H894Q894 135 865 89T779 17T645 -10H630Q569 -10 517 7T427 58Q392 27 337 9T217 -10Q135 -10
79 21T23 143Q23 212 62 249T173 301T358 316V345Q358 373 340 389T293 405Q270 405 250 392T229 358V354H39Q38 357 38 368Q38 411 67 445T151 500T278 521H311Q409 521 472 487Q536 521 623 521H648Q725 521 780 492ZM602 400T582 380T562 330V316H700V330Q700
359 680 379T631 400Q602 400 582 380ZM292 225T261 208T230 159Q230 111 290 111Q318 111 338 130T358 181V225Q292 225 261 208Z" />
<glyph unicode="&#xe7;" glyph-name="ccedilla" horiz-adv-x="569" d="M380 521T434 493T516 416T545 304H376V330Q376 359 356 379T307 400Q278 400 258 380T238 330V181Q238 152 258 132T308 111H320Q349 111 368 131T387 181V207H545Q545 104 481 47T307 -10H278Q211
-10 153 23T61 112T26 235V276Q26 342 60 398T151 488T276 521H306Q380 521 434 493ZM352 -17T386 -37T421 -108Q421 -157 385 -177T303 -197Q266 -197 232 -188T177 -161L209 -107Q246 -139 294 -139Q334 -139 334 -108Q334 -92 326 -84T296 -76H278V-17H299Q352
-17 386 -37Z" />
<glyph unicode="&#xe8;" glyph-name="egrave" horiz-adv-x="601" d="M365 575H247L121 717L123 720H274L365 575ZM402 521T457 492T542 410T572 291V229H239V181Q239 147 260 129T316 111Q351 111 369 132T388 192H571Q571 135 542 89T456 17T322 -10H307Q227
-10 164 19T64 105T27 240V271Q27 349 61 405T158 491T300 521H325Q402 521 457 492ZM279 400T259 380T239 330V316H377V330Q377 359 357 379T308 400Q279 400 259 380Z" />
<glyph unicode="&#xe9;" glyph-name="eacute" horiz-adv-x="601" d="M489 717L363 575H245L336 720H487L489 717ZM402 521T457 492T542 410T572 291V229H239V181Q239 147 260 129T316 111Q351 111 369 132T388 192H571Q571 135 542 89T456 17T322 -10H307Q227
-10 164 19T64 105T27 240V271Q27 349 61 405T158 491T300 521H325Q402 521 457 492ZM279 400T259 380T239 330V316H377V330Q377 359 357 379T308 400Q279 400 259 380Z" />
<glyph unicode="&#xea;" glyph-name="ecircumflex" horiz-adv-x="601" d="M511 575H381L307 652L233 575H105L244 720H372L511 575ZM402 521T457 492T542 410T572 291V229H239V181Q239 147 260 129T316 111Q351 111 369 132T388 192H571Q571 135 542 89T456 17T322
-10H307Q227 -10 164 19T64 105T27 240V271Q27 349 61 405T158 491T300 521H325Q402 521 457 492ZM279 400T259 380T239 330V316H377V330Q377 359 357 379T308 400Q279 400 259 380Z" />
<glyph unicode="&#xeb;" glyph-name="edieresis" horiz-adv-x="601" d="M274 573H122V720H274V573ZM494 573H342V720H494V573ZM402 521T457 492T542 410T572 291V229H239V181Q239 147 260 129T316 111Q351 111 369 132T388 192H571Q571 135 542 89T456 17T322
-10H307Q227 -10 164 19T64 105T27 240V271Q27 349 61 405T158 491T300 521H325Q402 521 457 492ZM279 400T259 380T239 330V316H377V330Q377 359 357 379T308 400Q279 400 259 380Z" />
<glyph unicode="&#xec;" glyph-name="igrave" horiz-adv-x="297" d="M210 575H92L-34 717L-32 720H119L210 575ZM247 0H50V510H247V0Z" />
<glyph unicode="&#xed;" glyph-name="iacute" horiz-adv-x="297" d="M327 717L201 575H83L174 720H325L327 717ZM247 0H50V510H247V0Z" />
<glyph unicode="&#xee;" glyph-name="icircumflex" horiz-adv-x="297" d="M352 575H222L148 652L74 575H-54L85 720H213L352 575ZM247 0H50V510H247V0Z" />
<glyph unicode="&#xef;" glyph-name="idieresis" horiz-adv-x="297" d="M115 573H-37V720H115V573ZM335 573H183V720H335V573ZM247 0H50V510H247V0Z" />
<glyph unicode="&#xf0;" glyph-name="eth" horiz-adv-x="615" d="M254 724T303 695L374 728L429 677L370 649Q466 574 527 471T588 266V245Q588 170 554 112T459 22T323 -10H291Q216 -10 156 22T61 113T26 245V266Q26 333 57 385T142 470T263 510Q261 522 251
541T226 580L160 549L101 600L176 635Q139 669 94 685L96 689L209 739Q254 724 303 695ZM278 400T258 380T238 330V181Q238 152 258 132T307 111Q336 111 356 131T376 181V330Q376 359 356 379T307 400Q278 400 258 380Z" />
<glyph unicode="&#xf1;" glyph-name="ntilde" horiz-adv-x="599" d="M535 684T516 651T465 598T395 577Q357 577 304 596L262 610Q239 617 222 617Q204 617 191 606T172 577H91Q91 613 110 646T161 699T231 720Q253 720 273 715T326 699Q351 690 369 685T404 680Q422
680 435 691T454 720H535Q535 684 516 651ZM443 521T477 501T532 447T552 371V0H354V320Q354 345 339 362T301 380Q279 380 264 363T248 320V0H50V511H199L219 437Q274 521 374 521H402Q443 521 477 501Z" />
<glyph unicode="&#xf2;" glyph-name="ograve" horiz-adv-x="614" d="M273 720L364 575H246L120 717L122 720H273ZM398 521T458 489T553 398T588 266V245Q588 170 554 112T459 22T323 -10H291Q216 -10 156 22T61 113T26 245V266Q26 340 60 398T155 488T291 521H323Q398
521 458 489ZM278 400T258 380T238 330V181Q238 152 258 132T307 111Q336 111 356 131T376 181V330Q376 359 356 379T307 400Q278 400 258 380Z" />
<glyph unicode="&#xf3;" glyph-name="oacute" horiz-adv-x="614" d="M491 720L493 717L367 575H249L340 720H491ZM398 521T458 489T553 398T588 266V245Q588 170 554 112T459 22T323 -10H291Q216 -10 156 22T61 113T26 245V266Q26 340 60 398T155 488T291 521H323Q398
521 458 489ZM278 400T258 380T238 330V181Q238 152 258 132T307 111Q336 111 356 131T376 181V330Q376 359 356 379T307 400Q278 400 258 380Z" />
<glyph unicode="&#xf4;" glyph-name="ocircumflex" horiz-adv-x="614" d="M370 720L509 575H379L305 652L231 575H103L242 720H370ZM398 521T458 489T553 398T588 266V245Q588 170 554 112T459 22T323 -10H291Q216 -10 156 22T61 113T26 245V266Q26 340 60 398T155
488T291 521H323Q398 521 458 489ZM278 400T258 380T238 330V181Q238 152 258 132T307 111Q336 111 356 131T376 181V330Q376 359 356 379T307 400Q278 400 258 380Z" />
<glyph unicode="&#xf5;" glyph-name="otilde" horiz-adv-x="614" d="M530 684T511 651T460 598T390 577Q369 577 350 581T300 596L258 610Q238 617 217 617Q199 617 186 606T167 577H86Q86 613 105 646T156 699T226 720Q248 720 268 715T321 699Q346 690 364 685T399
680Q417 680 430 691T449 720H530Q530 684 511 651ZM398 521T458 489T553 398T588 266V245Q588 170 554 112T459 22T323 -10H291Q216 -10 156 22T61 113T26 245V266Q26 340 60 398T155 488T291 521H323Q398 521 458 489ZM278 400T258 380T238 330V181Q238 152 258
132T307 111Q336 111 356 131T376 181V330Q376 359 356 379T307 400Q278 400 258 380Z" />
<glyph unicode="&#xf6;" glyph-name="odieresis" horiz-adv-x="614" d="M272 720V573H120V720H272ZM492 720V573H340V720H492ZM398 521T458 489T553 398T588 266V245Q588 170 554 112T459 22T323 -10H291Q216 -10 156 22T61 113T26 245V266Q26 340 60 398T155
488T291 521H323Q398 521 458 489ZM278 400T258 380T238 330V181Q238 152 258 132T307 111Q336 111 356 131T376 181V330Q376 359 356 379T307 400Q278 400 258 380Z" />
<glyph unicode="&#xf7;" glyph-name="divide" horiz-adv-x="615" d="M372 496V369H245V496H372ZM563 321V193H51V321H563ZM372 144V17H245V144H372Z" />
<glyph unicode="&#xf8;" glyph-name="oslash" horiz-adv-x="614" d="M489 470Q536 435 562 383T588 266V245Q588 170 554 112T459 22T323 -10H291Q235 -10 194 6L155 -55H63L125 42Q78 77 52 128T26 245V266Q26 340 60 398T155 488T291 521H323Q378 521 420 505L460
569H552L489 470ZM278 400T258 380T238 330V220L345 388Q328 400 307 400Q278 400 258 380ZM268 123Q284 111 307 111Q336 111 356 131T376 181V292L268 123Z" />
<glyph unicode="&#xf9;" glyph-name="ugrave" horiz-adv-x="628" d="M267 720L358 575H240L114 717L116 720H267ZM548 148Q548 129 557 120T579 111Q598 111 614 120V13Q582 -10 513 -10Q449 -10 415 10T366 71Q349 45 310 18T224 -10H196Q155 -10 121 10T66 64T46
140V511H244V191Q244 166 259 149T297 131Q319 131 334 148T350 191V511H548V148Z" />
<glyph unicode="&#xfa;" glyph-name="uacute" horiz-adv-x="628" d="M472 720L474 717L348 575H230L321 720H472ZM548 148Q548 129 557 120T579 111Q598 111 614 120V13Q582 -10 513 -10Q449 -10 415 10T366 71Q349 45 310 18T224 -10H196Q155 -10 121 10T66 64T46
140V511H244V191Q244 166 259 149T297 131Q319 131 334 148T350 191V511H548V148Z" />
<glyph unicode="&#xfb;" glyph-name="ucircumflex" horiz-adv-x="628" d="M361 720L500 575H370L296 652L222 575H94L233 720H361ZM548 148Q548 129 557 120T579 111Q598 111 614 120V13Q582 -10 513 -10Q449 -10 415 10T366 71Q349 45 310 18T224 -10H196Q155
-10 121 10T66 64T46 140V511H244V191Q244 166 259 149T297 131Q319 131 334 148T350 191V511H548V148Z" />
<glyph unicode="&#xfc;" glyph-name="udieresis" horiz-adv-x="628" d="M263 720V573H111V720H263ZM483 720V573H331V720H483ZM548 148Q548 129 557 120T579 111Q598 111 614 120V13Q582 -10 513 -10Q449 -10 415 10T366 71Q349 45 310 18T224 -10H196Q155 -10
121 10T66 64T46 140V511H244V191Q244 166 259 149T297 131Q319 131 334 148T350 191V511H548V148Z" />
<glyph unicode="&#xfd;" glyph-name="yacute" horiz-adv-x="553" d="M464 720L466 717L340 575H222L313 720H464ZM384 36Q347 -66 283 -126T130 -187Q62 -187 31 -172V-43Q43 -49 64 -53T106 -57Q146 -57 161 -37T184 15L-4 511H207L286 246H294L361 511H556L384 36Z" />
<glyph unicode="&#xfe;" glyph-name="thorn" horiz-adv-x="601" d="M248 458Q286 521 380 521Q435 521 478 492T547 405T573 261V250Q573 165 548 107T479 19T380 -10Q286 -10 248 53V-181H50V720H248V458ZM284 400T266 380T248 330V185Q248 156 266 136T310 115Q336
115 354 135T372 185V330Q372 359 354 379T310 400Q284 400 266 380Z" />
<glyph unicode="&#xff;" glyph-name="ydieresis" horiz-adv-x="553" d="M248 720V573H96V720H248ZM468 720V573H316V720H468ZM384 36Q347 -66 283 -126T130 -187Q62 -187 31 -172V-43Q43 -49 64 -53T106 -57Q146 -57 161 -37T184 15L-4 511H207L286 246H294L361
511H556L384 36Z" />
<glyph unicode="&#x2013;" glyph-name="endash" horiz-adv-x="598" d="M549 354V196H49V354H549Z" />
<glyph unicode="&#x2014;" glyph-name="emdash" horiz-adv-x="1008" d="M959 354V196H49V354H959Z" />
<glyph unicode="&#x2018;" glyph-name="quoteleft" horiz-adv-x="273" d="M186 686L149 521H233V338H42V499L92 686H186Z" />
<glyph unicode="&#x2019;" glyph-name="quoteright" horiz-adv-x="266" d="M228 686V525L178 338H84L121 503H37V686H228Z" />
<glyph unicode="&#x201a;" glyph-name="quotesinglbase" horiz-adv-x="287" d="M239 183V22L189 -165H95L132 0H48V183H239Z" />
<glyph unicode="&#x201c;" glyph-name="quotedblleft" horiz-adv-x="514" d="M229 686V503H145L182 338H88L38 525V686H229ZM477 686V503H393L430 338H336L286 525V686H477Z" />
<glyph unicode="&#x201d;" glyph-name="quotedblright" horiz-adv-x="514" d="M228 686V525L178 338H84L121 503H37V686H228ZM476 686V525L426 338H332L369 503H285V686H476Z" />
<glyph unicode="&#x201e;" glyph-name="quotedblbase" horiz-adv-x="535" d="M239 183V22L189 -165H95L132 0H48V183H239ZM487 183V22L437 -165H343L380 0H296V183H487Z" />
<glyph unicode="&#x2022;" glyph-name="bullet" horiz-adv-x="600" d="M346 514T385 491T448 429T471 343Q471 296 448 257T386 194T299 171Q252 171 213 194T151 256T128 343Q128 390 151 429T213 491T299 514Q346 514 385 491Z" />
<glyph unicode="&#x2039;" glyph-name="guilsinglleft" horiz-adv-x="261" d="M224 511L139 337L224 163H150L30 337L150 511H224Z" />
<glyph unicode="&#x203a;" glyph-name="guilsinglright" horiz-adv-x="261" d="M111 511L231 337L111 163H37L122 337L37 511H111Z" />
</font>
</defs>
</svg>
