<?xml version="1.0" standalone="no"?>
<!DOCTYPE svg PUBLIC "-//W3C//DTD SVG 1.1//EN" "http://www.w3.org/Graphics/SVG/1.1/DTD/svg11.dtd">
<svg xmlns="http://www.w3.org/2000/svg">
<defs >
<font id="Chivo" horiz-adv-x="562" ><font-face
    font-family="Chivo Bold"
    units-per-em="1000"
    panose-1="0 0 5 0 0 0 0 0 0 0"
    ascent="940"
    descent="-250"
    alphabetic="0" />
<glyph unicode=" " glyph-name="space" horiz-adv-x="220" />
<glyph unicode="!" glyph-name="exclam" horiz-adv-x="290" d="M56 686H233L192 202H95L56 686ZM72 147H218V0H72V147Z" />
<glyph unicode="&quot;" glyph-name="quotedbl" horiz-adv-x="461" d="M98 475L82 539V686H200V539Q183 464 166 401H116L98 475ZM260 539V686H379V539L369 498Q358 460 344 401H294L260 539Z" />
<glyph unicode="#" glyph-name="numbersign" horiz-adv-x="600" d="M178 494L223 696H320L275 494H405L450 696H546Q519 573 500 494H598V402H482L452 264H562V172H430Q415 102 392 0H296Q319 102 334 172H203L166 0H69L107 172H3V264H128L159 402H45V494H178ZM224
263H355L386 401H254L224 263Z" />
<glyph unicode="$" glyph-name="dollar" horiz-adv-x="586" d="M399 485Q399 519 372 539T298 560Q250 560 222 543T193 500Q193 477 210 462T253 438T327 417Q397 400 440 383T515 328T547 228Q547 128 488 77T324 20Q333 -42 337 -66H236L249 21Q154 29 95 77T35
216L36 236H171L170 221Q170 181 199 159T283 137Q347 137 374 156T402 205Q402 229 385 244T343 268T270 289Q202 305 158 323T82 380T50 485Q50 566 105 613T249 671Q241 729 236 758H337Q331 725 324 672Q418 666 475 620T533 487V476H399V485Z" />
<glyph unicode="%" glyph-name="percent" horiz-adv-x="739" d="M202 0H119L538 686H618L202 0ZM303 407T268 372T181 336H166Q114 336 79 371T44 458V563Q44 614 79 649T166 685H181Q233 685 268 650T303 563V458Q303 407 268 372ZM222 594T209 608T174 622Q153
622 139 608T125 573V449Q125 428 138 414T174 400Q195 400 208 414T222 449V573Q222 594 209 608ZM693 70T658 35T571 -1H556Q504 -1 469 34T434 121V226Q434 277 469 312T556 348H571Q623 348 658 313T693 226V121Q693 70 658 35ZM612 256T599 270T564 285Q543
285 529 271T515 235V111Q515 90 529 76T564 62Q585 62 598 76T612 111V235Q612 256 599 270Z" />
<glyph unicode="&amp;" glyph-name="ampersand" horiz-adv-x="670" d="M324 577T304 577Q260 577 231 556T201 493Q201 475 212 455T246 422T300 408H422L430 434Q436 452 444 478T463 539H566V408H660V292H566V0H294Q182 0 110 47T37 195Q37 315 163 357Q113
376 84 414T55 507Q55 566 88 609T175 674T291 696Q317 696 347 691V570Q324 577 304 577ZM246 292T216 267T185 204Q185 113 325 113H418V292H304Q246 292 216 267Z" />
<glyph unicode="&apos;" glyph-name="quotesingle" horiz-adv-x="272" d="M76 539V686H195V539L160 401H110L76 539Z" />
<glyph unicode="(" glyph-name="parenleft" horiz-adv-x="326" d="M36 380T77 489T195 686H275Q221 597 188 483T155 265Q155 160 188 46T275 -157H195Q118 -70 77 39T36 264Q36 380 77 489Z" />
<glyph unicode=")" glyph-name="parenright" horiz-adv-x="326" d="M285 148T244 39T126 -158H46Q99 -70 132 45T165 265Q165 368 132 482T46 686H126Q203 599 244 490T285 264Q285 148 244 39Z" />
<glyph unicode="*" glyph-name="asterisk" horiz-adv-x="583" d="M350 458L455 339L373 279L289 417L207 280L125 339L230 458L75 496L107 589L255 526L242 686H341L326 526L479 588L508 494L350 458Z" />
<glyph unicode="+" glyph-name="plus" horiz-adv-x="600" d="M352 308H556V202H352V0H247V202H44V308H247V511H352V308Z" />
<glyph unicode="," glyph-name="comma" horiz-adv-x="277" d="M106 -96T128 0H65V147H211V24L169 -144H96Q106 -96 128 0Z" />
<glyph unicode="-" glyph-name="hyphen" horiz-adv-x="260" d="M0 336H253V208H0V336Z" />
<glyph unicode="." glyph-name="period" horiz-adv-x="277" d="M65 147H211V0H65V147Z" />
<glyph unicode="/" glyph-name="slash" horiz-adv-x="564" d="M81 -171H-25L465 686H570L81 -171Z" />
<glyph unicode="0" glyph-name="zero" horiz-adv-x="612" d="M560 163T528 108T441 22T320 -10H291Q225 -10 170 21T84 108T52 230V455Q52 522 83 577T170 664T291 696H320Q386 696 441 664T528 577T560 455V230Q560 163 528 108ZM412 517T382 548T306 579Q261
579 231 548T200 472V214Q200 169 230 138T306 107Q351 107 381 138T412 214V472Q412 517 382 548Z" />
<glyph unicode="1" glyph-name="one" horiz-adv-x="612" d="M80 121H246V514H79V603Q135 607 206 631T340 691H393V121H556V0H80V121Z" />
<glyph unicode="2" glyph-name="two" horiz-adv-x="612" d="M58 96T80 134T144 205L339 358Q377 387 391 417T406 481Q406 518 382 545T310 573Q271 573 246 556T208 514T196 472Q196 454 197 445H60Q59 453 59 464Q59 518 83 570T165 659T317 696H332Q404 696
455 666T533 588T559 484Q559 425 537 380T459 288Q396 235 307 168Q297 160 282 146T267 128H561V0H58V30Q58 96 80 134Z" />
<glyph unicode="3" glyph-name="three" horiz-adv-x="612" d="M174 205Q174 109 292 109Q351 109 382 133T414 205Q414 260 379 278T285 296H213V403H295Q340 403 369 426T398 492Q398 534 368 555T292 577Q249 577 219 554T189 488H56V509Q56 562 86 605T171
672T294 696H313Q380 696 432 672T515 606T545 510Q545 456 518 418T443 359V354Q499 335 531 293T563 186Q563 130 532 85T445 15T313 -10H286Q208 -10 152 16T66 87T37 191V205H174Z" />
<glyph unicode="4" glyph-name="four" horiz-adv-x="612" d="M359 464T380 516T414 612H478V278H570V160H478V0H335V160H33V279Q84 360 137 480T218 696H359Q344 628 305 545T222 388T145 278H335V428Q359 464 380 516Z" />
<glyph unicode="5" glyph-name="five" horiz-adv-x="612" d="M410 453T460 424T535 342T561 223Q561 156 530 103T442 20T312 -10H297Q223 -10 167 20T81 103T49 219H186Q187 172 220 142T299 111Q350 111 381 143T413 227Q413 274 385 306T306 339Q236 339 199
287L76 305L104 686H517V556H220L208 405Q269 453 341 453Q410 453 460 424Z" />
<glyph unicode="6" glyph-name="six" horiz-adv-x="612" d="M263 576T231 546T199 472V375Q226 404 263 419T339 434Q401 434 451 409T531 336T561 225Q561 154 529 101T440 19T314 -10H300Q232 -10 175 20T85 106T52 231V455Q52 522 85 577T174 664T297 696H311Q377
696 431 669T516 591T547 469H409Q409 513 381 544T307 576Q263 576 231 546ZM416 273T385 302T306 332Q261 332 230 303T199 228V208Q199 163 230 134T309 104Q354 104 385 133T416 208V228Q416 273 385 302Z" />
<glyph unicode="7" glyph-name="seven" horiz-adv-x="612" d="M455 477T388 338T321 55Q321 12 322 0H154Q154 145 221 284T391 555H66V686H562V614Q455 477 388 338Z" />
<glyph unicode="8" glyph-name="eight" horiz-adv-x="612" d="M506 320T533 284T561 187Q561 93 493 42T306 -10Q191 -10 121 42T51 187Q51 247 78 284T160 348V352Q117 381 96 413T74 500Q74 561 104 605T186 673T306 696Q373 696 425 673T508 606T538 500Q538
445 517 413T452 352V348Q506 320 533 284ZM211 450T238 425T306 399Q347 399 374 424T401 487V498Q401 535 374 560T306 586Q265 586 238 561T211 498V487Q211 450 238 425ZM200 150T230 125T306 100Q352 100 382 125T412 192V208Q412 250 382 275T306 300Q260
300 230 275T200 208V192Q200 150 230 125Z" />
<glyph unicode="9" glyph-name="nine" horiz-adv-x="612" d="M331 109T356 123T397 161T413 213V310Q386 281 349 266T273 251Q211 251 161 276T81 349T51 460Q51 531 83 584T172 667T298 696H312Q380 696 437 666T527 580T560 454V230Q560 163 527 108T438 22T315
-10H301Q235 -10 181 16T96 94T65 216H203Q203 171 231 140T305 109Q331 109 356 123ZM196 412T226 383T304 354Q349 354 381 383T413 457V478Q413 523 382 552T304 581Q259 581 228 552T196 478V457Q196 412 226 383Z" />
<glyph unicode=":" glyph-name="colon" horiz-adv-x="277" d="M65 511H211V363H65V511ZM65 147H211V0H65V147Z" />
<glyph unicode=";" glyph-name="semicolon" horiz-adv-x="277" d="M65 511H211V363H65V511ZM106 -96T128 0H65V147H211V24L169 -144H96Q106 -96 128 0Z" />
<glyph unicode="&lt;" glyph-name="less" horiz-adv-x="599" d="M554 512V398L165 254L554 110V-3Q478 25 379 63T232 120L45 192V315L554 512Z" />
<glyph unicode="=" glyph-name="equal" horiz-adv-x="600" d="M46 309V415H554V309H46ZM46 93V199H554V93H46Z" />
<glyph unicode="&gt;" glyph-name="greater" horiz-adv-x="600" d="M367 120Q320 102 221 64T45 -3V110L433 254Q402 266 340 288L45 398V512L554 315V192L367 120Z" />
<glyph unicode="?" glyph-name="question" horiz-adv-x="572" d="M222 201V259Q222 292 239 315T292 372Q328 405 346 431T365 493Q365 533 343 557T275 582Q222 582 202 552T181 484L182 452H41Q38 479 38 489Q38 541 67 589T151 666T274 696H296Q366 696 417
668T494 593T521 491Q521 445 506 411T469 356T415 308Q385 283 372 268T358 233V201H222ZM216 147H363V0H216V147Z" />
<glyph unicode="@" glyph-name="at" horiz-adv-x="927" d="M688 132T698 123T723 113Q758 113 785 158T813 321Q813 483 723 561T475 639Q304 639 209 544T114 261Q114 82 194 -6T441 -95Q477 -95 528 -86T606 -63V-126Q576 -137 526 -145T441 -153Q253 -153 151
-51T48 262Q48 414 105 511T258 653T476 697Q660 697 769 605T879 320Q879 213 849 146T772 51T676 22Q622 22 597 43T563 103H559Q524 63 488 43T399 22Q328 22 282 51T236 162Q236 228 273 263T379 311T553 324V360Q553 391 534 411T468 431Q425 431 405 411T384
371V364H252Q251 370 251 381Q251 421 277 453T352 503T462 521H482Q583 521 635 481T688 371V150Q688 132 698 123ZM465 247T421 230T377 172Q377 141 394 128T446 114Q489 114 521 145T553 225V247Q465 247 421 230Z" />
<glyph unicode="A" glyph-name="A" horiz-adv-x="686" d="M472 135H199L151 0H2L251 686H435L684 0H522L472 135ZM241 252H431Q393 365 339 521H334L241 252Z" />
<glyph unicode="B" glyph-name="B" horiz-adv-x="645" d="M412 686Q461 686 502 664T567 603T592 518Q592 448 559 410T475 358V353Q530 342 569 302T608 183Q608 133 583 91T514 25T418 0H72V686H412ZM398 408T421 431T444 489Q444 531 421 549T368 568H218V408H368Q398
408 421 431ZM412 124T435 147T458 203V212Q458 245 435 268T379 291H218V124H379Q412 124 435 147Z" />
<glyph unicode="C" glyph-name="C" horiz-adv-x="683" d="M210 196T251 155T355 113Q426 113 460 151T494 270H635Q635 182 600 119T502 23T362 -10H348Q262 -10 194 25T87 128T48 294V392Q48 486 87 555T193 660T344 696H358Q438 696 500 665T599 570T635 414H488Q488
492 454 532T354 573Q291 573 251 532T210 414V272Q210 196 251 155Z" />
<glyph unicode="D" glyph-name="D" horiz-adv-x="686" d="M417 686T486 650T597 545T638 382V304Q638 210 597 141T487 36T332 0H72V686H332Q417 686 486 650ZM227 123H332Q396 123 436 164T476 282V404Q476 480 436 521T332 563H227V123Z" />
<glyph unicode="E" glyph-name="E" horiz-adv-x="598" d="M72 0V686H555L538 563H224V413H517V290H224V123H541L558 0H72Z" />
<glyph unicode="F" glyph-name="F" horiz-adv-x="563" d="M520 563H224V399H490V276H224V0H72V686H536L520 563Z" />
<glyph unicode="G" glyph-name="G" horiz-adv-x="699" d="M210 196T251 155T356 113Q418 113 453 150T488 261H333V373H633V136Q633 86 635 48T639 0H554Q541 36 530 77Q498 36 447 13T337 -10H332Q250 -10 186 27T85 133T48 294V392Q48 484 86 553T192 659T348
696H362Q437 696 499 665T597 576T633 442H487Q487 507 449 540T353 573Q290 573 250 532T210 414V272Q210 196 251 155Z" />
<glyph unicode="H" glyph-name="H" horiz-adv-x="691" d="M464 0V286H227V0H72V686H226V414H464V686H618V0H464Z" />
<glyph unicode="I" glyph-name="I" horiz-adv-x="461" d="M72 686H388V563H308V123H388V0H72V123H153V563H72V686Z" />
<glyph unicode="J" glyph-name="J" horiz-adv-x="527" d="M155 228V187Q155 157 177 135T228 113Q261 113 282 133T304 187V686H455V183Q455 91 395 41T239 -10H219Q123 -10 67 40T10 183V228H155Z" />
<glyph unicode="K" glyph-name="K" horiz-adv-x="660" d="M223 686V372L470 686H643L412 397Q497 255 510 233L650 0H475L312 278L223 179V0H72V686H223Z" />
<glyph unicode="L" glyph-name="L" horiz-adv-x="533" d="M72 0V686H227V128H509L526 0H72Z" />
<glyph unicode="M" glyph-name="M" horiz-adv-x="967" d="M740 0V505H735L557 0H395L217 505H212V0H72V686H321L481 233H485L645 686H894V0H740Z" />
<glyph unicode="N" glyph-name="N" horiz-adv-x="691" d="M272 316Q261 332 242 363T217 405L213 402V0H72V686H203L419 368L449 321Q465 293 474 280L477 283V686H618V0H487L272 316Z" />
<glyph unicode="O" glyph-name="O" horiz-adv-x="708" d="M660 200T619 131T509 26T354 -10Q269 -10 200 26T89 131T48 294V392Q48 486 89 555T199 660T354 696Q439 696 508 660T619 555T660 392V294Q660 200 619 131ZM498 490T458 531T354 573Q290 573 250 532T210
414V272Q210 196 250 155T354 113Q418 113 458 154T498 272V414Q498 490 458 531Z" />
<glyph unicode="P" glyph-name="P" horiz-adv-x="629" d="M226 0H72V686H403Q459 686 506 660T582 586T610 481V475Q610 418 583 370T508 293T403 265H226V0ZM226 386H367Q405 386 430 411T455 471V477Q455 512 431 537T367 563H226V386Z" />
<glyph unicode="Q" glyph-name="Q" horiz-adv-x="708" d="M660 179T601 103T443 1Q452 -22 473 -38T533 -54Q554 -54 581 -49T629 -37T655 -28V-116Q655 -117 632 -127T574 -145T498 -153Q405 -153 354 -109T290 -4Q220 8 166 46T80 148T48 294V392Q48 486 89
555T199 660T354 696Q439 696 508 660T619 555T660 392V294Q660 179 601 103ZM498 490T458 531T354 573Q290 573 250 532T210 414V272Q210 196 250 155T354 113Q418 113 458 154T498 272V414Q498 490 458 531Z" />
<glyph unicode="R" glyph-name="R" horiz-adv-x="665" d="M615 -7T562 -7Q511 -7 479 18T447 102Q447 188 425 236T340 284H224V0H72V686H379Q477 686 543 646T610 516Q610 480 594 445T550 385T487 354V349Q531 335 564 289T597 166Q597 56 648 40V6Q615 -7 562
-7ZM407 405T430 427T454 480V487Q454 520 432 541T374 563H224V405H374Q407 405 430 427Z" />
<glyph unicode="S" glyph-name="S" horiz-adv-x="635" d="M435 492Q435 530 405 551T322 573Q267 573 237 556T206 509Q206 484 225 468T273 441T354 419Q429 401 477 382T560 323T595 216Q595 99 520 45T312 -10Q192 -10 114 42T35 202L36 224H182L181 208Q181
164 214 139T307 113Q377 113 407 135T438 191Q438 217 420 233T373 259T293 281Q217 300 169 319T86 380T51 493Q51 559 87 605T183 673T319 696Q434 696 507 646T580 495V483H435V492Z" />
<glyph unicode="T" glyph-name="T" horiz-adv-x="557" d="M355 562V0H202V562H7V686H549V562H355Z" />
<glyph unicode="U" glyph-name="U" horiz-adv-x="673" d="M609 150T577 98T486 18T350 -10H322Q245 -10 187 18T96 98T64 218V686H218V221Q218 174 251 143T337 112Q390 112 422 142T455 221V686H609V218Q609 150 577 98Z" />
<glyph unicode="V" glyph-name="V" horiz-adv-x="643" d="M330 196L487 686H635L409 0H232L7 686H169L325 196H330Z" />
<glyph unicode="W" glyph-name="W" horiz-adv-x="972" d="M370 0H199L7 686H168L289 237H294L416 686H571L692 237H697L818 686H964L771 0H602L490 412H484L370 0Z" />
<glyph unicode="X" glyph-name="X" horiz-adv-x="658" d="M232 360L22 686H203L333 476H337Q439 630 470 686H637Q617 655 558 563T426 362Q495 255 564 148T658 0H477L325 245H321Q192 46 167 0H0L232 360Z" />
<glyph unicode="Y" glyph-name="Y" horiz-adv-x="637" d="M396 263V0H242V263L7 686H181L324 414H329L472 686H630L396 263Z" />
<glyph unicode="Z" glyph-name="Z" horiz-adv-x="631" d="M42 0V49L358 563H66V686H581V636L266 123H589V0H42Z" />
<glyph unicode="[" glyph-name="bracketleft" horiz-adv-x="338" d="M62 -161V686H265V617H177V-92H265V-161H62Z" />
<glyph unicode="\" glyph-name="backslash" horiz-adv-x="560" d="M-11 686H95L585 -171H478L-11 686Z" />
<glyph unicode="]" glyph-name="bracketright" horiz-adv-x="338" d="M71 -161V-92H159V617H71V686H274V-161H71Z" />
<glyph unicode="^" glyph-name="asciicircum" horiz-adv-x="598" d="M556 0H445Q347 256 299 385L153 0H41L238 511H359L556 0Z" />
<glyph unicode="_" glyph-name="underscore" horiz-adv-x="500" d="M0 -126V-65H500V-126H0Z" />
<glyph unicode="`" glyph-name="grave" horiz-adv-x="333" d="M171 575L51 717L52 720H180L273 575H171Z" />
<glyph unicode="a" glyph-name="a" horiz-adv-x="598" d="M379 379T358 400T288 421Q260 421 240 412T210 388T199 362V354H58Q56 366 56 372Q56 415 84 449T164 502T281 521H302Q410 521 466 479T522 362V126Q522 108 530 99T551 90Q561 90 573 94T592 101V11Q555
-10 504 -10Q449 -10 420 12T386 76Q316 -10 214 -10Q138 -10 89 21T40 139Q40 210 80 247T193 298T379 311V345Q379 379 358 400ZM284 229T238 211T191 150Q191 117 209 104T266 90Q292 90 318 104T361 144T379 202V229Q284 229 238 211Z" />
<glyph unicode="b" glyph-name="b" horiz-adv-x="595" d="M234 481T270 501T355 521Q411 521 455 492T526 405T552 264V253Q552 166 524 107T448 19T340 -10Q285 -10 242 12T170 78L153 52Q143 35 134 23T119 0H66V720H212V452Q234 481 270 501ZM404 353T377 384T308
415Q266 415 239 384T212 294V211Q212 153 239 122T308 90Q350 90 377 121T404 211V294Q404 353 377 384Z" />
<glyph unicode="c" glyph-name="c" horiz-adv-x="567" d="M191 157T217 124T287 90Q333 90 359 118T386 203H524Q524 132 494 84T413 13T303 -10H287Q175 -10 109 56T43 241V270Q43 348 74 404T161 491T287 521H303Q362 521 412 496T493 422T524 307H379Q379 359
356 390T288 421Q243 421 217 386T191 296V207Q191 157 217 124Z" />
<glyph unicode="d" glyph-name="d" horiz-adv-x="595" d="M399 64Q343 -10 255 -10Q195 -10 147 19T71 107T43 253V264Q43 347 69 405T139 492T240 521Q288 521 324 501T383 452V720H529V0H414L399 64ZM191 153T218 122T287 90Q329 90 356 121T383 211V294Q383
353 356 384T287 415Q245 415 218 384T191 294V211Q191 153 218 122Z" />
<glyph unicode="e" glyph-name="e" horiz-adv-x="584" d="M540 124T508 79T424 12T309 -10H293Q222 -10 165 20T76 106T43 241V270Q43 347 76 404T165 491T293 521H309Q371 521 424 496T509 422T541 307V231H191V207Q191 157 220 124T301 90Q347 90 373 115T400
191H540Q540 124 508 79ZM250 421T223 390T191 311H393Q393 362 370 391T294 421Q250 421 223 390Z" />
<glyph unicode="f" glyph-name="f" horiz-adv-x="363" d="M337 622T318 625T288 629Q264 629 248 617T231 569V511H350V411H231V0H85V411H25V511H85V578Q85 728 239 728Q264 728 297 722T350 707V618Q337 622 318 625Z" />
<glyph unicode="g" glyph-name="g" horiz-adv-x="572" d="M487 116T524 77T562 -27Q562 -73 536 -110T466 -167T367 -188H156Q95 -188 54 -155T12 -62Q12 -26 33 3T88 48Q65 63 53 85T41 133Q41 170 65 197T127 237Q93 258 74 290T55 360Q55 431 110 476T273 521H289Q336
521 373 509Q414 533 430 558T448 603H562Q562 497 456 471L455 468Q508 423 508 360Q508 316 483 280T413 222T308 200H239Q209 200 193 187T176 158Q176 138 191 127T239 116H417Q487 116 524 77ZM195 325T220 306T283 286Q322 286 347 305T372 360Q372 395 347
414T283 434Q245 434 220 415T195 360Q195 325 220 306ZM389 -98T408 -83T427 -46Q427 -26 411 -13T369 1H195Q173 1 157 -13T141 -48Q141 -68 157 -83T195 -98H363Q389 -98 408 -83Z" />
<glyph unicode="h" glyph-name="h" horiz-adv-x="598" d="M212 461Q270 521 354 521Q432 521 482 479T533 357V0H387V325Q387 364 365 389T307 415Q268 415 240 386T212 314V0H66V720H212V461Z" />
<glyph unicode="i" glyph-name="i" horiz-adv-x="278" d="M65 720H213V605H65V720ZM66 0V511H212V0H66Z" />
<glyph unicode="j" glyph-name="j" horiz-adv-x="280" d="M66 720H214V605H66V720ZM213 510V-20Q213 -186 59 -186Q33 -186 1 -181T-50 -166V-73Q-39 -78 -20 -82T11 -86Q37 -86 52 -72T67 -18V510H213Z" />
<glyph unicode="k" glyph-name="k" d="M390 0L269 167L212 112V0H66V720H212V273L391 511H556L368 271L564 0H390Z" />
<glyph unicode="l" glyph-name="l" horiz-adv-x="279" d="M66 0V720H212V0H66Z" />
<glyph unicode="m" glyph-name="m" horiz-adv-x="870" d="M391 521T430 500T490 439Q542 521 639 521Q711 521 758 478T806 357V0H660V328Q660 370 642 392T592 415Q557 415 533 387T509 317V0H363V328Q363 369 345 392T294 415Q259 415 236 387T212 317V0H66V511H176Q182
486 192 436Q219 479 257 500T342 521Q391 521 430 500Z" />
<glyph unicode="n" glyph-name="n" horiz-adv-x="597" d="M191 436Q254 521 354 521Q432 521 482 479T533 357V0H387V325Q387 364 365 389T307 415Q268 415 240 386T212 314V0H66V511H175L191 436Z" />
<glyph unicode="o" glyph-name="o" horiz-adv-x="602" d="M559 164T527 107T437 20T309 -10H293Q222 -10 165 20T76 107T43 241V270Q43 347 75 404T165 491T293 521H309Q380 521 437 491T526 404T559 270V241Q559 164 527 107ZM411 357T381 389T301 421Q252 421
222 389T191 296V215Q191 154 221 122T301 90Q350 90 380 122T411 215V296Q411 357 381 389Z" />
<glyph unicode="p" glyph-name="p" horiz-adv-x="595" d="M196 447Q252 521 340 521Q400 521 448 492T524 404T552 258V247Q552 164 526 106T456 19T355 -10Q307 -10 271 10T212 59V-181H66V511H181L196 447ZM404 359T377 390T308 421Q266 421 239 390T212 300V217Q212
159 239 128T308 96Q350 96 377 127T404 217V300Q404 359 377 390Z" />
<glyph unicode="q" glyph-name="q" horiz-adv-x="595" d="M360 30T324 10T239 -10Q183 -10 139 19T68 106T42 247V258Q42 345 70 404T146 492T254 521Q309 521 352 499T424 433L441 459Q451 476 460 488T475 511H528V-180H382V59Q360 30 324 10ZM190 159T217 128T286
96Q328 96 355 127T382 217V300Q382 359 355 390T286 421Q244 421 217 390T190 300V217Q190 159 217 128Z" />
<glyph unicode="r" glyph-name="r" horiz-adv-x="489" d="M353 336Q353 367 336 389T282 412Q247 412 229 385T210 316V0H66V511H174L192 436Q196 447 212 467T260 504T335 521Q404 521 441 478T479 364Q479 349 478 334T475 313H353V336Z" />
<glyph unicode="s" glyph-name="s" horiz-adv-x="539" d="M158 156Q158 121 189 106T266 90Q306 90 337 102T369 140Q369 168 340 180T250 201Q186 212 145 225T75 270T45 359Q45 411 75 447T156 502T267 521H287Q340 521 387 504T464 455T493 383Q493 375 492
369T491 361H363Q363 421 271 421Q229 421 204 409T178 376Q178 351 205 341T292 322Q359 311 400 299T473 254T504 162Q504 71 440 31T277 -10H244Q182 -10 133 9T57 63T29 143L30 163H158V156Z" />
<glyph unicode="t" glyph-name="t" horiz-adv-x="371" d="M323 1T291 -4T233 -10Q156 -10 117 23T78 133V411H22V511H83L134 674H224V511H343V411H224V158Q224 118 239 104T281 90Q293 90 312 94T343 103V9Q323 1 291 -4Z" />
<glyph unicode="u" glyph-name="u" horiz-adv-x="612" d="M531 105T540 98T560 90Q570 90 582 94T601 101V11Q564 -10 513 -10Q413 -10 397 63Q334 -10 243 -10Q165 -10 115 32T64 154V511H210V186Q210 147 232 122T290 96Q329 96 357 125T385 197V511H531V120Q531
105 540 98Z" />
<glyph unicode="v" glyph-name="v" horiz-adv-x="536" d="M350 0H185L6 511H161L272 169H277L388 511H530L350 0Z" />
<glyph unicode="w" glyph-name="w" horiz-adv-x="820" d="M353 95T325 0H162L6 511H157L245 195H251Q277 287 291 333L342 511H488L577 195H583Q643 405 672 511H814L658 0H497L413 285H407Q353 95 325 0Z" />
<glyph unicode="x" glyph-name="x" horiz-adv-x="553" d="M185 264L20 511H190L230 447Q240 431 252 411T281 365H285L353 470L378 511H536L369 265L546 0H377L273 165H269L234 110L164 0H6L185 264Z" />
<glyph unicode="y" glyph-name="y" horiz-adv-x="536" d="M311 -72T257 -129T127 -187Q74 -187 41 -172V-69Q53 -74 72 -78T108 -83Q172 -83 199 10L6 511H161L274 190H280L386 511H530L348 28Q311 -72 257 -129Z" />
<glyph unicode="z" glyph-name="z" horiz-adv-x="486" d="M36 0V50L254 411H49V511H447V462L228 100H455V0H36Z" />
<glyph unicode="{" glyph-name="braceleft" horiz-adv-x="347" d="M70 303T93 317T117 360V560Q117 638 170 662T307 686V627Q267 627 249 612T228 545L221 371Q219 320 197 294T126 268V259Q174 259 196 233T221 156L228 -18Q230 -69 248 -84T307 -100V-159Q254
-159 214 -152T146 -116T117 -33V168Q117 194 94 209T40 224V303Q70 303 93 317Z" />
<glyph unicode="|" glyph-name="bar" horiz-adv-x="250" d="M75 -199V720H175V-199H75Z" />
<glyph unicode="}" glyph-name="braceright" horiz-adv-x="347" d="M276 224T253 209T229 168V-33Q229 -88 201 -116T132 -151T39 -159V-100Q79 -100 97 -85T118 -18L125 156Q127 207 149 233T220 259V268Q172 268 150 294T125 371L118 545Q116 596 98 611T39
627V686Q123 686 176 662T229 560V360Q229 332 252 318T306 303V224Q276 224 253 209Z" />
<glyph unicode="~" glyph-name="asciitilde" horiz-adv-x="714" d="M639 288T615 268T555 230T476 212Q448 212 422 220T359 245Q319 262 293 270T238 278Q196 278 160 261T99 223T75 200V306Q75 308 99 328T159 366T238 384Q266 384 292 376T355 351Q395 334
421 326T476 318Q518 318 554 335T615 373T639 396V290Q639 288 615 268Z" />
<glyph unicode="&#xa0;" glyph-name="uni00A0" horiz-adv-x="220" />
<glyph unicode="&#xa1;" glyph-name="exclamdown" horiz-adv-x="290" d="M218 364H72V511H218V364ZM234 -175H57L98 309H195L234 -175Z" />
<glyph unicode="&#xa2;" glyph-name="cent" horiz-adv-x="571" d="M193 243T219 210T289 176Q335 176 361 204T388 289H526Q526 192 471 138T331 77L343 -8H242L254 77Q157 88 101 153T45 327V356Q45 463 102 528T254 605L242 693H343L330 605Q384 600 428 574T499
501T526 393H381Q381 445 358 476T290 507Q245 507 219 472T193 382V293Q193 243 219 210Z" />
<glyph unicode="&#xa3;" glyph-name="sterling" horiz-adv-x="654" d="M116 397V476Q116 544 145 594T226 671T348 698Q413 698 465 674T548 603T578 496V478H429V499Q429 531 405 555T348 579Q311 579 288 557T264 499V397H406V279H264L245 118H538V0H39V118H116V279H6V397H116Z"
/>
<glyph unicode="&#xa4;" glyph-name="currency" horiz-adv-x="663" d="M82 380T94 418T130 483L76 538L131 593L185 539Q212 560 251 573T330 586Q372 586 410 574T474 539L530 595Q558 565 588 537L533 482Q554 456 566 418T578 338Q578 297 566 259T531 192Q531
192 568 155L586 137L532 83L514 101Q476 139 476 139Q449 116 411 103T330 90Q288 90 251 102T185 137Q157 110 130 82L75 137L131 192Q107 221 95 258T82 338Q82 380 94 418ZM177 295T197 259T253 201T330 179Q373 179 408 200T464 258T484 338Q484 381 464 417T409
474T330 496Q288 496 253 475T198 417T177 338Q177 295 197 259Z" />
<glyph unicode="&#xa5;" glyph-name="yen" horiz-adv-x="642" d="M142 448L10 686H184Q247 563 327 414H331Q411 563 474 686H632L500 448H598V370H457L424 310H598V231H398V0H245V231H49V310H219Q197 350 185 370H49V448H142Z" />
<glyph unicode="&#xa6;" glyph-name="brokenbar" horiz-adv-x="277" d="M78 686H198V415H78V686ZM78 270H198V0H78V270Z" />
<glyph unicode="&#xa7;" glyph-name="section" horiz-adv-x="550" d="M52 614T116 655T276 696Q369 696 431 658T494 550V536H365Q365 566 342 582T277 599Q235 599 211 585T186 548Q186 515 218 493T317 443Q379 416 417 395T483 338T511 252Q511 203 488 165T428
103Q461 83 479 49T498 -26Q498 -104 434 -144T273 -185Q180 -185 118 -147T56 -39V-27H185Q185 -54 208 -71T273 -89Q315 -89 339 -75T364 -37Q364 -4 332 17T233 67Q172 93 133 115T67 172T39 258Q39 307 62 345T121 407Q89 427 71 461T52 536Q52 614 116 655ZM391
246T371 268T322 305T248 341L206 359Q188 350 175 332T162 291Q162 249 199 223T306 167Q321 161 347 149Q365 158 378 176T391 217Q391 246 371 268Z" />
<glyph unicode="&#xa8;" glyph-name="dieresis" horiz-adv-x="440" d="M59 740H180V618H59V740ZM263 740H384V618H263V740Z" />
<glyph unicode="&#xa9;" glyph-name="copyright" horiz-adv-x="740" d="M724 247T677 166T548 38T370 -10Q273 -10 192 37T64 166T16 344Q16 440 63 521T192 649T370 696Q466 696 547 649T676 521T724 344Q724 247 677 166ZM665 430T627 498T522 605T370 643Q284
643 217 605T112 499T74 344Q74 256 111 187T216 80T370 42Q455 42 522 80T627 187T665 344Q665 430 627 498ZM287 254T311 229T374 204Q417 204 437 227T458 299H543Q543 219 497 175T379 130H370Q290 130 240 178T189 314V373Q189 430 212 471T277 534T368 556H376Q450
556 496 512T543 386H455Q455 433 434 457T374 482Q336 482 312 457T287 386V300Q287 254 311 229Z" />
<glyph unicode="&#xaa;" glyph-name="ordfeminine" horiz-adv-x="389" d="M231 635T176 635Q151 635 136 624T121 600V595H36Q35 598 35 606Q35 645 73 670T171 696H184Q250 696 284 670T318 600V456Q318 446 323 440T335 434Q346 434 360 441V386Q336 374 307
374Q242 374 235 426Q193 374 131 374Q84 374 55 392T25 464Q25 526 75 547T231 569V589Q231 635 176 635ZM173 519T145 508T117 471Q117 451 128 443T162 434Q187 434 209 453T231 502V519Q173 519 145 508Z" />
<glyph unicode="&#xab;" glyph-name="guillemotleft" horiz-adv-x="459" d="M168 163L47 337L168 511H230L141 337L230 163H168ZM350 163L228 337L350 511H412L323 337L412 163H350Z" />
<glyph unicode="&#xac;" glyph-name="logicalnot" horiz-adv-x="600" d="M564 166H447V347H35V468H564V166Z" />
<glyph unicode="&#xad;" glyph-name="uni00AD" horiz-adv-x="260" d="M0 336H253V208H0V336Z" />
<glyph unicode="&#xae;" glyph-name="registered" horiz-adv-x="740" d="M724 247T677 166T548 38T370 -10Q273 -10 192 37T64 166T16 344Q16 440 63 521T192 649T370 696Q466 696 547 649T676 521T724 344Q724 247 677 166ZM666 431T628 499T523 605T370 644Q284
644 217 606T112 500T74 344Q74 256 111 187T216 80T370 42Q455 42 522 80T628 187T666 344Q666 431 628 499ZM540 132T510 132Q479 132 460 147T441 198Q441 250 427 279T376 308H306V137H214V551H399Q459 551 499 527T539 448Q539 414 518 386T465 351V346Q491
338 511 311T531 237Q531 170 562 161V140Q540 132 510 132ZM416 381T430 394T445 426V431Q445 451 432 463T396 476H306V381H396Q416 381 430 394Z" />
<glyph unicode="&#xaf;" glyph-name="overscore" horiz-adv-x="460" d="M71 662V736H389V662H71Z" />
<glyph unicode="&#xb0;" glyph-name="degree" horiz-adv-x="400" d="M350 505T330 471T275 416T200 396Q159 396 125 416T70 470T50 546Q50 586 70 620T124 675T200 696Q240 696 274 676T329 621T350 546Q350 505 330 471ZM276 578T254 600T200 622Q169 622 147
600T124 546Q124 515 146 493T200 470Q232 470 254 492T276 546Q276 578 254 600Z" />
<glyph unicode="&#xb1;" glyph-name="plusminus" horiz-adv-x="600" d="M352 382H556V276H352V147H247V276H44V382H247V511H352V382ZM46 0V105H553V0H46Z" />
<glyph unicode="&#xb2;" glyph-name="uni00B2" horiz-adv-x="505" d="M42 468T55 490T89 531Q112 554 168 596L197 618Q233 646 233 685Q233 707 217 721T175 735Q144 735 131 716T117 680V666H43Q42 670 42 676Q42 702 55 731T98 781T178 802H186Q247 802 280
768T314 687Q314 654 300 629T260 582T175 515Q152 500 144 489H315V419H42V435Q42 468 55 490Z" />
<glyph unicode="&#xb3;" glyph-name="uni00B3" horiz-adv-x="506" d="M111 530Q111 477 176 477Q208 477 225 490T243 530Q243 560 224 570T172 580H133V639H178Q203 639 218 651T234 688Q234 711 218 723T176 735Q152 735 136 722T120 686H46V697Q46 742 82 771T177
800H188Q243 800 279 771T315 698Q315 641 259 616V611Q290 601 307 578T325 520Q325 473 288 443T188 412H173Q109 412 73 443T36 523V530H111Z" />
<glyph unicode="&#xb4;" glyph-name="acute" horiz-adv-x="333" d="M51 575L143 720H272L273 717L152 575H51Z" />
<glyph unicode="&#xb5;" glyph-name="uni00B5" horiz-adv-x="610" d="M531 105T540 98T560 90Q570 90 582 94T601 101V11Q564 -10 513 -10Q413 -10 397 63Q334 -10 243 -10Q219 -10 201 -3Q210 -32 210 -57V-161H64V511H210V186Q210 147 232 122T290 96Q329 96
357 125T385 197V511H531V120Q531 105 540 98Z" />
<glyph unicode="&#xb6;" glyph-name="paragraph" horiz-adv-x="526" d="M170 255T125 285T53 363T26 468Q26 527 55 577T134 656T243 686H516V616H450V-165H375V616H301V-165H225V251Q170 255 125 285Z" />
<glyph unicode="&#xb7;" glyph-name="middot" horiz-adv-x="277" d="M65 362H211V214H65V362Z" />
<glyph unicode="&#xb8;" glyph-name="cedilla" horiz-adv-x="342" d="M81 -117T101 -129T162 -142Q184 -142 197 -133T211 -104Q211 -87 199 -78T166 -68H146V-17H169Q285 -17 285 -107Q285 -157 248 -177T166 -197Q137 -197 108 -190T58 -168L79 -116Q81 -117 101 -129Z" />
<glyph unicode="&#xb9;" glyph-name="uni00B9" horiz-adv-x="319" d="M40 487H130V700H40V748Q70 750 108 763T181 796H210V487H289V422H40V487Z" />
<glyph unicode="&#xba;" glyph-name="ordmasculine" horiz-adv-x="367" d="M342 455T300 415T191 374H180Q114 374 72 414T29 526V544Q29 614 71 655T180 696H191Q257 696 299 655T342 544V526Q342 455 300 415ZM252 596T234 615T185 635Q156 635 138 616T119
560V510Q119 474 137 454T185 434Q215 434 233 454T252 510V560Q252 596 234 615Z" />
<glyph unicode="&#xbb;" glyph-name="guillemotright" horiz-adv-x="459" d="M47 163L136 337L47 511H109L231 337L109 163H47ZM229 163L318 337L229 511H291L412 337L291 163H229Z" />
<glyph unicode="&#xbc;" glyph-name="onequarter" horiz-adv-x="745" d="M219 0H147L567 686H636L219 0ZM28 372H119V588H27V637Q58 639 96 652T171 685H200V372H290V306H28V372ZM600 256T611 284T629 336H664V153H715V88H664V0H586V88H420V153Q448 198 477 264T522
382H599Q587 328 549 257T482 153H586V235Q600 256 611 284Z" />
<glyph unicode="&#xbd;" glyph-name="onehalf" horiz-adv-x="765" d="M211 0H139L559 686H628L211 0ZM28 372H119V588H27V637Q58 639 96 652T171 685H200V372H290V306H28V372ZM449 49T462 71T496 112Q519 135 575 177L604 199Q640 227 640 266Q640 288 624 302T582
316Q551 316 538 297T524 261V247H450Q449 251 449 257Q449 283 462 312T505 362T585 383H593Q654 383 687 349T721 268Q721 235 707 210T667 163T582 96Q559 81 551 70H722V0H449V16Q449 49 462 71Z" />
<glyph unicode="&#xbe;" glyph-name="threequarters" horiz-adv-x="755" d="M112 419Q112 366 177 366Q209 366 226 379T244 419Q244 449 225 459T173 469H134V528H179Q204 528 219 540T235 577Q235 600 219 612T177 624Q153 624 137 611T121 575H47V586Q47 631
83 660T178 689H189Q244 689 280 660T316 587Q316 530 260 505V500Q291 490 308 467T326 409Q326 362 289 332T189 301H174Q110 301 74 332T37 412V419H112ZM222 0H150L570 686H639L222 0ZM600 256T611 284T629 336H664V153H715V88H664V0H586V88H420V153Q448 198
477 264T522 382H599Q587 328 549 257T482 153H586V235Q600 256 611 284Z" />
<glyph unicode="&#xbf;" glyph-name="questiondown" horiz-adv-x="572" d="M355 364H208V511H355V364ZM349 310V252Q349 220 332 197T279 139Q243 106 225 80T206 18Q206 -22 228 -46T296 -71Q349 -71 369 -41T390 27L389 59H530Q533 32 533 22Q533 -30 504 -78T420
-155T297 -185H275Q205 -185 154 -157T77 -82T50 20Q50 66 65 100T102 155T156 203Q186 228 199 243T213 278V310H349Z" />
<glyph unicode="&#xc0;" glyph-name="Agrave" horiz-adv-x="686" d="M307 750L187 892L188 895H316L409 750H307ZM472 135H199L151 0H2L251 686H435L684 0H522L472 135ZM241 252H431Q393 365 339 521H334L241 252Z" />
<glyph unicode="&#xc1;" glyph-name="Aacute" horiz-adv-x="686" d="M269 750L361 895H490L491 892L370 750H269ZM472 135H199L151 0H2L251 686H435L684 0H522L472 135ZM241 252H431Q393 365 339 521H334L241 252Z" />
<glyph unicode="&#xc2;" glyph-name="Acircumflex" horiz-adv-x="686" d="M395 895L532 750H427L343 833L258 750H154L292 895H395ZM472 135H199L151 0H2L251 686H435L684 0H522L472 135ZM241 252H431Q393 365 339 521H334L241 252Z" />
<glyph unicode="&#xc3;" glyph-name="Atilde" horiz-adv-x="686" d="M546 842T531 814T486 767T420 749Q398 749 377 754T327 769Q301 778 284 782T249 786Q208 786 197 749H131Q131 779 147 808T192 855T258 873Q280 873 301 868T350 853Q379 843 395 839T428
835Q448 835 462 845T481 873H546Q546 842 531 814ZM472 135H199L151 0H2L251 686H435L684 0H522L472 135ZM241 252H431Q393 365 339 521H334L241 252Z" />
<glyph unicode="&#xc4;" glyph-name="Adieresis" horiz-adv-x="686" d="M176 871H297V749H176V871ZM380 871H501V749H380V871ZM472 135H199L151 0H2L251 686H435L684 0H522L472 135ZM241 252H431Q393 365 339 521H334L241 252Z" />
<glyph unicode="&#xc5;" glyph-name="Aring" horiz-adv-x="686" d="M246 872T275 901T347 931Q389 931 418 902T448 830Q448 788 419 759T347 729Q305 729 276 758T246 830Q246 872 275 901ZM303 812T316 799T347 786Q365 786 378 799T391 830Q391 848 378 861T347
874Q329 874 316 861T303 830Q303 812 316 799ZM472 135H199L151 0H2L251 686H435L684 0H522L472 135ZM241 252H431Q393 365 339 521H334L241 252Z" />
<glyph unicode="&#xc6;" glyph-name="AE" horiz-adv-x="1004" d="M215 135Q169 45 147 0H0L344 686H960L944 562H555L589 411H922V290H615Q639 192 653 126H947L964 0H518L488 135H215ZM326 361L273 252H464Q446 338 438 380L409 521H404L326 361Z" />
<glyph unicode="&#xc7;" glyph-name="Ccedilla" horiz-adv-x="683" d="M210 196T251 155T355 113Q426 113 460 151T494 270H635Q635 182 600 119T502 23T362 -10H348Q262 -10 194 25T87 128T48 294V392Q48 486 87 555T193 660T344 696H358Q438 696 500 665T599
570T635 414H488Q488 492 454 532T354 573Q291 573 251 532T210 414V272Q210 196 251 155ZM257 -117T277 -129T338 -142Q360 -142 373 -133T387 -104Q387 -87 375 -78T342 -68H322V-17H345Q461 -17 461 -107Q461 -157 424 -177T342 -197Q313 -197 284 -190T234
-168L255 -116Q257 -117 277 -129Z" />
<glyph unicode="&#xc8;" glyph-name="Egrave" horiz-adv-x="598" d="M277 750L157 892L158 895H286L379 750H277ZM72 0V686H555L538 563H224V413H517V290H224V123H541L558 0H72Z" />
<glyph unicode="&#xc9;" glyph-name="Eacute" horiz-adv-x="598" d="M263 750L355 895H484L485 892L364 750H263ZM72 0V686H555L538 563H224V413H517V290H224V123H541L558 0H72Z" />
<glyph unicode="&#xca;" glyph-name="Ecircumflex" horiz-adv-x="598" d="M364 895L501 750H396L312 833L227 750H123L261 895H364ZM72 0V686H555L538 563H224V413H517V290H224V123H541L558 0H72Z" />
<glyph unicode="&#xcb;" glyph-name="Edieresis" horiz-adv-x="598" d="M152 872H273V750H152V872ZM356 872H477V750H356V872ZM72 0V686H555L538 563H224V413H517V290H224V123H541L558 0H72Z" />
<glyph unicode="&#xcc;" glyph-name="Igrave" horiz-adv-x="461" d="M192 750L72 892L73 895H201L294 750H192ZM72 686H388V563H308V123H388V0H72V123H153V563H72V686Z" />
<glyph unicode="&#xcd;" glyph-name="Iacute" horiz-adv-x="461" d="M169 750L261 895H390L391 892L270 750H169ZM72 686H388V563H308V123H388V0H72V123H153V563H72V686Z" />
<glyph unicode="&#xce;" glyph-name="Icircumflex" horiz-adv-x="461" d="M283 895L420 750H315L231 833L146 750H42L180 895H283ZM72 686H388V563H308V123H388V0H72V123H153V563H72V686Z" />
<glyph unicode="&#xcf;" glyph-name="Idieresis" horiz-adv-x="461" d="M70 872H191V750H70V872ZM274 872H395V750H274V872ZM72 686H388V563H308V123H388V0H72V123H153V563H72V686Z" />
<glyph unicode="&#xd0;" glyph-name="Eth" horiz-adv-x="686" d="M73 383V686H347Q428 686 494 649T599 542T638 382V304Q638 213 600 144T495 38T347 0H73V303H-11V383H73ZM411 124T445 173T480 317V387Q480 472 443 517T337 563H227V383H339V303H227V124H337Q411
124 445 173Z" />
<glyph unicode="&#xd1;" glyph-name="Ntilde" horiz-adv-x="691" d="M555 842T540 814T495 767T429 749Q407 749 386 754T336 769Q310 778 293 782T258 786Q217 786 206 749H140Q140 779 156 808T201 855T267 873Q289 873 310 868T359 853Q388 843 404 839T437
835Q457 835 471 845T490 873H555Q555 842 540 814ZM272 316Q261 332 242 363T217 405L213 402V0H72V686H203L419 368L449 321Q465 293 474 280L477 283V686H618V0H487L272 316Z" />
<glyph unicode="&#xd2;" glyph-name="Ograve" horiz-adv-x="708" d="M307 750L187 892L188 895H316L409 750H307ZM660 200T619 131T509 26T354 -10Q269 -10 200 26T89 131T48 294V392Q48 486 89 555T199 660T354 696Q439 696 508 660T619 555T660 392V294Q660
200 619 131ZM498 490T458 531T354 573Q290 573 250 532T210 414V272Q210 196 250 155T354 113Q418 113 458 154T498 272V414Q498 490 458 531Z" />
<glyph unicode="&#xd3;" glyph-name="Oacute" horiz-adv-x="708" d="M304 750L396 895H525L526 892L405 750H304ZM660 200T619 131T509 26T354 -10Q269 -10 200 26T89 131T48 294V392Q48 486 89 555T199 660T354 696Q439 696 508 660T619 555T660 392V294Q660
200 619 131ZM498 490T458 531T354 573Q290 573 250 532T210 414V272Q210 196 250 155T354 113Q418 113 458 154T498 272V414Q498 490 458 531Z" />
<glyph unicode="&#xd4;" glyph-name="Ocircumflex" horiz-adv-x="708" d="M403 895L540 750H435L351 833L266 750H162L300 895H403ZM660 200T619 131T509 26T354 -10Q269 -10 200 26T89 131T48 294V392Q48 486 89 555T199 660T354 696Q439 696 508 660T619 555T660
392V294Q660 200 619 131ZM498 490T458 531T354 573Q290 573 250 532T210 414V272Q210 196 250 155T354 113Q418 113 458 154T498 272V414Q498 490 458 531Z" />
<glyph unicode="&#xd5;" glyph-name="Otilde" horiz-adv-x="708" d="M560 842T545 814T500 767T434 749Q412 749 391 754T341 769Q315 778 298 782T263 786Q222 786 211 749H145Q145 779 161 808T206 855T272 873Q294 873 315 868T364 853Q393 843 409 839T442
835Q462 835 476 845T495 873H560Q560 842 545 814ZM660 200T619 131T509 26T354 -10Q269 -10 200 26T89 131T48 294V392Q48 486 89 555T199 660T354 696Q439 696 508 660T619 555T660 392V294Q660 200 619 131ZM498 490T458 531T354 573Q290 573 250 532T210 414V272Q210
196 250 155T354 113Q418 113 458 154T498 272V414Q498 490 458 531Z" />
<glyph unicode="&#xd6;" glyph-name="Odieresis" horiz-adv-x="708" d="M194 872H315V750H194V872ZM398 872H519V750H398V872ZM660 200T619 131T509 26T354 -10Q269 -10 200 26T89 131T48 294V392Q48 486 89 555T199 660T354 696Q439 696 508 660T619 555T660
392V294Q660 200 619 131ZM498 490T458 531T354 573Q290 573 250 532T210 414V272Q210 196 250 155T354 113Q418 113 458 154T498 272V414Q498 490 458 531Z" />
<glyph unicode="&#xd7;" glyph-name="multiply" horiz-adv-x="600" d="M444 474L517 399L373 255L517 112L444 37L386 94Q300 180 300 180L155 37L82 112L226 255L82 399L155 474L300 330L444 474Z" />
<glyph unicode="&#xd8;" glyph-name="Oslash" horiz-adv-x="708" d="M660 200T619 131T509 26T354 -10Q270 -10 203 24L149 -65H63L142 66Q97 105 73 163T48 294V392Q48 486 89 555T199 660T354 696Q435 696 503 663L558 754H644L564 622Q610 582 635 524T660
392V294Q660 200 619 131ZM210 229T222 199L435 550Q400 573 354 573Q290 573 250 532T210 414V272Q210 229 222 199ZM498 456T484 490L271 136Q306 113 354 113Q418 113 458 154T498 272V414Q498 456 484 490Z" />
<glyph unicode="&#xd9;" glyph-name="Ugrave" horiz-adv-x="673" d="M290 750L170 892L171 895H299L392 750H290ZM609 150T577 98T486 18T350 -10H322Q245 -10 187 18T96 98T64 218V686H218V221Q218 174 251 143T337 112Q390 112 422 142T455 221V686H609V218Q609
150 577 98Z" />
<glyph unicode="&#xda;" glyph-name="Uacute" horiz-adv-x="673" d="M285 750L377 895H506L507 892L386 750H285ZM609 150T577 98T486 18T350 -10H322Q245 -10 187 18T96 98T64 218V686H218V221Q218 174 251 143T337 112Q390 112 422 142T455 221V686H609V218Q609
150 577 98Z" />
<glyph unicode="&#xdb;" glyph-name="Ucircumflex" horiz-adv-x="673" d="M390 895L527 750H422L338 833L253 750H149L287 895H390ZM609 150T577 98T486 18T350 -10H322Q245 -10 187 18T96 98T64 218V686H218V221Q218 174 251 143T337 112Q390 112 422 142T455
221V686H609V218Q609 150 577 98Z" />
<glyph unicode="&#xdc;" glyph-name="Udieresis" horiz-adv-x="673" d="M175 872H296V750H175V872ZM379 872H500V750H379V872ZM609 150T577 98T486 18T350 -10H322Q245 -10 187 18T96 98T64 218V686H218V221Q218 174 251 143T337 112Q390 112 422 142T455 221V686H609V218Q609
150 577 98Z" />
<glyph unicode="&#xdd;" glyph-name="Yacute" horiz-adv-x="637" d="M275 750L367 895H496L497 892L376 750H275ZM396 263V0H242V263L7 686H181L324 414H329L472 686H630L396 263Z" />
<glyph unicode="&#xde;" glyph-name="Thorn" horiz-adv-x="634" d="M226 0H72V686H226V572H403Q460 572 507 546T582 472T610 367V359Q610 301 582 254T507 181T403 154H226V0ZM226 272H372Q411 272 433 300T455 369Q455 403 431 426T372 450H226V272Z" />
<glyph unicode="&#xdf;" glyph-name="germandbls" horiz-adv-x="622" d="M585 147T555 99T472 25T352 0H279V100H330Q377 100 408 133T440 224Q440 272 409 301T330 331H279V431H325Q365 431 392 460T419 534Q419 576 392 602T325 628Q282 628 257 599T231 526V-66H85V411H25V511H85Q87
577 121 626T210 702T329 728Q389 728 442 708T528 648T561 550Q561 498 534 455T464 393L465 388Q518 369 551 320T585 214Q585 147 555 99Z" />
<glyph unicode="&#xe0;" glyph-name="agrave" horiz-adv-x="598" d="M242 575L122 717L123 720H251L344 575H242ZM379 379T358 400T288 421Q260 421 240 412T210 388T199 362V354H58Q56 366 56 372Q56 415 84 449T164 502T281 521H302Q410 521 466 479T522 362V126Q522
108 530 99T551 90Q561 90 573 94T592 101V11Q555 -10 504 -10Q449 -10 420 12T386 76Q316 -10 214 -10Q138 -10 89 21T40 139Q40 210 80 247T193 298T379 311V345Q379 379 358 400ZM284 229T238 211T191 150Q191 117 209 104T266 90Q292 90 318 104T361 144T379
202V229Q284 229 238 211Z" />
<glyph unicode="&#xe1;" glyph-name="aacute" horiz-adv-x="598" d="M246 575L338 720H467L468 717L347 575H246ZM379 379T358 400T288 421Q260 421 240 412T210 388T199 362V354H58Q56 366 56 372Q56 415 84 449T164 502T281 521H302Q410 521 466 479T522 362V126Q522
108 530 99T551 90Q561 90 573 94T592 101V11Q555 -10 504 -10Q449 -10 420 12T386 76Q316 -10 214 -10Q138 -10 89 21T40 139Q40 210 80 247T193 298T379 311V345Q379 379 358 400ZM284 229T238 211T191 150Q191 117 209 104T266 90Q292 90 318 104T361 144T379
202V229Q284 229 238 211Z" />
<glyph unicode="&#xe2;" glyph-name="acircumflex" horiz-adv-x="598" d="M345 720L482 575H377L293 658L208 575H104L242 720H345ZM379 379T358 400T288 421Q260 421 240 412T210 388T199 362V354H58Q56 366 56 372Q56 415 84 449T164 502T281 521H302Q410 521
466 479T522 362V126Q522 108 530 99T551 90Q561 90 573 94T592 101V11Q555 -10 504 -10Q449 -10 420 12T386 76Q316 -10 214 -10Q138 -10 89 21T40 139Q40 210 80 247T193 298T379 311V345Q379 379 358 400ZM284 229T238 211T191 150Q191 117 209 104T266 90Q292
90 318 104T361 144T379 202V229Q284 229 238 211Z" />
<glyph unicode="&#xe3;" glyph-name="atilde" horiz-adv-x="598" d="M501 689T486 661T441 614T375 596Q353 596 332 601T282 616Q256 625 239 629T204 633Q163 633 152 596H86Q86 626 102 655T147 702T213 720Q235 720 256 715T305 700Q334 690 350 686T383 682Q403
682 417 692T436 720H501Q501 689 486 661ZM379 379T358 400T288 421Q260 421 240 412T210 388T199 362V354H58Q56 366 56 372Q56 415 84 449T164 502T281 521H302Q410 521 466 479T522 362V126Q522 108 530 99T551 90Q561 90 573 94T592 101V11Q555 -10 504 -10Q449
-10 420 12T386 76Q316 -10 214 -10Q138 -10 89 21T40 139Q40 210 80 247T193 298T379 311V345Q379 379 358 400ZM284 229T238 211T191 150Q191 117 209 104T266 90Q292 90 318 104T361 144T379 202V229Q284 229 238 211Z" />
<glyph unicode="&#xe4;" glyph-name="adieresis" horiz-adv-x="598" d="M128 720H249V598H128V720ZM332 720H453V598H332V720ZM379 379T358 400T288 421Q260 421 240 412T210 388T199 362V354H58Q56 366 56 372Q56 415 84 449T164 502T281 521H302Q410 521 466
479T522 362V126Q522 108 530 99T551 90Q561 90 573 94T592 101V11Q555 -10 504 -10Q449 -10 420 12T386 76Q316 -10 214 -10Q138 -10 89 21T40 139Q40 210 80 247T193 298T379 311V345Q379 379 358 400ZM284 229T238 211T191 150Q191 117 209 104T266 90Q292 90
318 104T361 144T379 202V229Q284 229 238 211Z" />
<glyph unicode="&#xe5;" glyph-name="aring" horiz-adv-x="598" d="M190 699T219 728T291 758Q333 758 362 729T392 657Q392 615 363 586T291 556Q249 556 220 585T190 657Q190 699 219 728ZM247 639T260 626T291 613Q309 613 322 626T335 657Q335 675 322 688T291
701Q273 701 260 688T247 657Q247 639 260 626ZM379 379T358 400T288 421Q260 421 240 412T210 388T199 362V354H58Q56 366 56 372Q56 415 84 449T164 502T281 521H302Q410 521 466 479T522 362V126Q522 108 530 99T551 90Q561 90 573 94T592 101V11Q555 -10 504
-10Q449 -10 420 12T386 76Q316 -10 214 -10Q138 -10 89 21T40 139Q40 210 80 247T193 298T379 311V345Q379 379 358 400ZM284 229T238 211T191 150Q191 117 209 104T266 90Q292 90 318 104T361 144T379 202V229Q284 229 238 211Z" />
<glyph unicode="&#xe6;" glyph-name="ae" horiz-adv-x="918" d="M528 163T553 126T637 88Q691 88 713 119T736 191H872Q872 132 844 87T763 16T641 -10H631Q567 -10 516 13T430 79Q397 37 341 14T221 -10Q143 -10 92 21T40 139Q40 210 80 247T193 298T379 311V349Q379
382 359 403T288 425Q242 425 221 404T199 362V354H58Q56 366 56 372Q56 415 84 449T164 502T281 521H302Q414 521 469 472Q532 521 626 521H642Q712 521 764 493T845 415T873 298V231H528Q528 163 553 126ZM586 423T560 393T529 311H729V324Q729 369 701 396T632
423Q586 423 560 393ZM284 229T238 211T191 150Q191 116 212 102T273 88Q316 88 347 118T379 197V229Q284 229 238 211Z" />
<glyph unicode="&#xe7;" glyph-name="ccedilla" horiz-adv-x="571" d="M193 157T219 124T289 90Q335 90 361 118T388 203H526Q526 132 496 84T415 13T305 -10H289Q177 -10 111 56T45 241V270Q45 348 76 404T163 491T289 521H305Q364 521 414 496T495 422T526 307H381Q381
359 358 390T290 421Q245 421 219 386T193 296V207Q193 157 219 124ZM198 -117T218 -129T279 -142Q301 -142 314 -133T328 -104Q328 -87 316 -78T283 -68H263V-17H286Q402 -17 402 -107Q402 -157 365 -177T283 -197Q254 -197 225 -190T175 -168L196 -116Q198 -117
218 -129Z" />
<glyph unicode="&#xe8;" glyph-name="egrave" horiz-adv-x="588" d="M250 575L130 717L131 720H259L352 575H250ZM542 124T510 79T426 12T311 -10H295Q224 -10 167 20T78 106T45 241V270Q45 347 78 404T167 491T295 521H311Q373 521 426 496T511 422T543 307V231H193V207Q193
157 222 124T303 90Q349 90 375 115T402 191H542Q542 124 510 79ZM252 421T225 390T193 311H395Q395 362 372 391T296 421Q252 421 225 390Z" />
<glyph unicode="&#xe9;" glyph-name="eacute" horiz-adv-x="588" d="M247 575L339 720H468L469 717L348 575H247ZM542 124T510 79T426 12T311 -10H295Q224 -10 167 20T78 106T45 241V270Q45 347 78 404T167 491T295 521H311Q373 521 426 496T511 422T543 307V231H193V207Q193
157 222 124T303 90Q349 90 375 115T402 191H542Q542 124 510 79ZM252 421T225 390T193 311H395Q395 362 372 391T296 421Q252 421 225 390Z" />
<glyph unicode="&#xea;" glyph-name="ecircumflex" horiz-adv-x="588" d="M353 720L490 575H385L301 658L216 575H112L250 720H353ZM542 124T510 79T426 12T311 -10H295Q224 -10 167 20T78 106T45 241V270Q45 347 78 404T167 491T295 521H311Q373 521 426 496T511
422T543 307V231H193V207Q193 157 222 124T303 90Q349 90 375 115T402 191H542Q542 124 510 79ZM252 421T225 390T193 311H395Q395 362 372 391T296 421Q252 421 225 390Z" />
<glyph unicode="&#xeb;" glyph-name="edieresis" horiz-adv-x="588" d="M138 720H259V598H138V720ZM342 720H463V598H342V720ZM542 124T510 79T426 12T311 -10H295Q224 -10 167 20T78 106T45 241V270Q45 347 78 404T167 491T295 521H311Q373 521 426 496T511 422T543
307V231H193V207Q193 157 222 124T303 90Q349 90 375 115T402 191H542Q542 124 510 79ZM252 421T225 390T193 311H395Q395 362 372 391T296 421Q252 421 225 390Z" />
<glyph unicode="&#xec;" glyph-name="igrave" horiz-adv-x="278" d="M104 575L-16 717L-15 720H113L206 575H104ZM66 0V511H212V0H66Z" />
<glyph unicode="&#xed;" glyph-name="iacute" horiz-adv-x="278" d="M70 575L162 720H291L292 717L171 575H70ZM66 0V511H212V0H66Z" />
<glyph unicode="&#xee;" glyph-name="icircumflex" horiz-adv-x="278" d="M192 720L329 575H224L140 658L55 575H-49L89 720H192ZM66 0V511H212V0H66Z" />
<glyph unicode="&#xef;" glyph-name="idieresis" horiz-adv-x="278" d="M-23 720H98V598H-23V720ZM181 720H302V598H181V720ZM66 0V511H212V0H66Z" />
<glyph unicode="&#xf0;" glyph-name="eth" horiz-adv-x="614" d="M561 163T529 107T439 20T311 -10H295Q224 -10 167 20T78 107T45 241V270Q45 347 78 402T169 485T297 514Q273 552 237 592L158 555L111 597L195 637Q155 671 110 692Q110 695 138 708T173 724Q188
729 197 734Q244 713 291 684L374 722L417 680Q412 678 388 666L344 646Q440 570 500 472T561 270V241Q561 163 529 107ZM413 357T383 389T303 421Q254 421 224 389T193 296V215Q193 154 223 122T303 90Q352 90 382 122T413 215V296Q413 357 383 389Z" />
<glyph unicode="&#xf1;" glyph-name="ntilde" horiz-adv-x="598" d="M515 689T500 661T455 614T389 596Q367 596 346 601T296 616Q270 625 253 629T218 633Q177 633 166 596H100Q100 626 116 655T161 702T227 720Q249 720 270 715T319 700Q348 690 364 686T397
682Q417 682 431 692T450 720H515Q515 689 500 661ZM191 436Q254 521 354 521Q432 521 482 479T533 357V0H387V325Q387 364 365 389T307 415Q268 415 240 386T212 314V0H66V511H175L191 436Z" />
<glyph unicode="&#xf2;" glyph-name="ograve" horiz-adv-x="606" d="M251 575L131 717L132 720H260L353 575H251ZM561 164T529 107T439 20T311 -10H295Q224 -10 167 20T78 107T45 241V270Q45 347 77 404T167 491T295 521H311Q382 521 439 491T528 404T561 270V241Q561
164 529 107ZM413 357T383 389T303 421Q254 421 224 389T193 296V215Q193 154 223 122T303 90Q352 90 382 122T413 215V296Q413 357 383 389Z" />
<glyph unicode="&#xf3;" glyph-name="oacute" horiz-adv-x="606" d="M254 575L346 720H475L476 717L355 575H254ZM561 164T529 107T439 20T311 -10H295Q224 -10 167 20T78 107T45 241V270Q45 347 77 404T167 491T295 521H311Q382 521 439 491T528 404T561 270V241Q561
164 529 107ZM413 357T383 389T303 421Q254 421 224 389T193 296V215Q193 154 223 122T303 90Q352 90 382 122T413 215V296Q413 357 383 389Z" />
<glyph unicode="&#xf4;" glyph-name="ocircumflex" horiz-adv-x="606" d="M353 720L490 575H385L301 658L216 575H112L250 720H353ZM561 164T529 107T439 20T311 -10H295Q224 -10 167 20T78 107T45 241V270Q45 347 77 404T167 491T295 521H311Q382 521 439 491T528
404T561 270V241Q561 164 529 107ZM413 357T383 389T303 421Q254 421 224 389T193 296V215Q193 154 223 122T303 90Q352 90 382 122T413 215V296Q413 357 383 389Z" />
<glyph unicode="&#xf5;" glyph-name="otilde" horiz-adv-x="606" d="M510 689T495 661T450 614T384 596Q362 596 341 601T291 616Q265 625 248 629T213 633Q172 633 161 596H95Q95 626 111 655T156 702T222 720Q244 720 265 715T314 700Q343 690 359 686T392 682Q412
682 426 692T445 720H510Q510 689 495 661ZM561 164T529 107T439 20T311 -10H295Q224 -10 167 20T78 107T45 241V270Q45 347 77 404T167 491T295 521H311Q382 521 439 491T528 404T561 270V241Q561 164 529 107ZM413 357T383 389T303 421Q254 421 224 389T193 296V215Q193
154 223 122T303 90Q352 90 382 122T413 215V296Q413 357 383 389Z" />
<glyph unicode="&#xf6;" glyph-name="odieresis" horiz-adv-x="606" d="M139 720H260V598H139V720ZM343 720H464V598H343V720ZM561 164T529 107T439 20T311 -10H295Q224 -10 167 20T78 107T45 241V270Q45 347 77 404T167 491T295 521H311Q382 521 439 491T528
404T561 270V241Q561 164 529 107ZM413 357T383 389T303 421Q254 421 224 389T193 296V215Q193 154 223 122T303 90Q352 90 382 122T413 215V296Q413 357 383 389Z" />
<glyph unicode="&#xf7;" glyph-name="divide" horiz-adv-x="600" d="M248 478H353V369H248V478ZM44 203V309H556V203H44ZM248 142H353V34H248V142Z" />
<glyph unicode="&#xf8;" glyph-name="oslash" horiz-adv-x="606" d="M561 164T529 107T439 20T311 -10H295Q234 -10 186 11L144 -55H69Q113 15 131 43Q90 76 68 126T45 241V270Q45 347 77 404T167 491T295 521H311Q367 521 419 500L462 568H537L474 468Q515 435
538 385T561 270V241Q561 164 529 107ZM264 254L360 406Q336 421 303 421Q254 421 224 389T193 296V215Q193 179 203 156L264 254ZM413 328T403 355L245 104Q267 90 303 90Q352 90 382 122T413 215V296Q413 328 403 355Z" />
<glyph unicode="&#xf9;" glyph-name="ugrave" horiz-adv-x="611" d="M252 575L132 717L133 720H261L354 575H252ZM531 105T540 98T560 90Q570 90 582 94T601 101V11Q564 -10 513 -10Q413 -10 397 63Q334 -10 243 -10Q165 -10 115 32T64 154V511H210V186Q210 147
232 122T290 96Q329 96 357 125T385 197V511H531V120Q531 105 540 98Z" />
<glyph unicode="&#xfa;" glyph-name="uacute" horiz-adv-x="611" d="M243 575L335 720H464L465 717L344 575H243ZM531 105T540 98T560 90Q570 90 582 94T601 101V11Q564 -10 513 -10Q413 -10 397 63Q334 -10 243 -10Q165 -10 115 32T64 154V511H210V186Q210 147
232 122T290 96Q329 96 357 125T385 197V511H531V120Q531 105 540 98Z" />
<glyph unicode="&#xfb;" glyph-name="ucircumflex" horiz-adv-x="611" d="M348 720L485 575H380L296 658L211 575H107L245 720H348ZM531 105T540 98T560 90Q570 90 582 94T601 101V11Q564 -10 513 -10Q413 -10 397 63Q334 -10 243 -10Q165 -10 115 32T64 154V511H210V186Q210
147 232 122T290 96Q329 96 357 125T385 197V511H531V120Q531 105 540 98Z" />
<glyph unicode="&#xfc;" glyph-name="udieresis" horiz-adv-x="611" d="M135 720H256V598H135V720ZM339 720H460V598H339V720ZM531 105T540 98T560 90Q570 90 582 94T601 101V11Q564 -10 513 -10Q413 -10 397 63Q334 -10 243 -10Q165 -10 115 32T64 154V511H210V186Q210
147 232 122T290 96Q329 96 357 125T385 197V511H531V120Q531 105 540 98Z" />
<glyph unicode="&#xfd;" glyph-name="yacute" horiz-adv-x="545" d="M224 575L316 720H445L446 717L325 575H224ZM315 -72T261 -129T131 -187Q78 -187 45 -172V-69Q57 -74 76 -78T112 -83Q176 -83 203 10L10 511H165L278 190H284L390 511H534L352 28Q315 -72 261 -129Z" />
<glyph unicode="&#xfe;" glyph-name="thorn" horiz-adv-x="597" d="M212 466Q264 521 340 521Q400 521 448 492T524 404T552 258V247Q552 164 526 106T456 19T355 -10Q307 -10 271 10T212 59V-181H66V720H212V466ZM404 359T377 390T308 421Q266 421 239 390T212
300V217Q212 159 239 128T308 96Q350 96 377 127T404 217V300Q404 359 377 390Z" />
<glyph unicode="&#xff;" glyph-name="ydieresis" horiz-adv-x="545" d="M114 720H235V598H114V720ZM318 720H439V598H318V720ZM315 -72T261 -129T131 -187Q78 -187 45 -172V-69Q57 -74 76 -78T112 -83Q176 -83 203 10L10 511H165L278 190H284L390 511H534L352
28Q315 -72 261 -129Z" />
<glyph unicode="&#x2013;" glyph-name="endash" horiz-adv-x="500" d="M0 209V336H500V209H0Z" />
<glyph unicode="&#x2014;" glyph-name="emdash" horiz-adv-x="911" d="M0 209V335H910V209H0Z" />
<glyph unicode="&#x2018;" glyph-name="quoteleft" horiz-adv-x="277" d="M170 638T148 542H211V395H65V518L107 686H180Q170 638 148 542Z" />
<glyph unicode="&#x2019;" glyph-name="quoteright" horiz-adv-x="277" d="M106 443T128 539H65V686H211V563L169 395H96Q106 443 128 539Z" />
<glyph unicode="&#x201a;" glyph-name="quotesinglbase" horiz-adv-x="277" d="M106 -96T128 0H65V147H211V24L169 -144H96Q106 -96 128 0Z" />
<glyph unicode="&#x201c;" glyph-name="quotedblleft" horiz-adv-x="472" d="M170 638T148 542H211V395H65V518L107 686H180Q170 638 148 542ZM365 638T343 542H406V395H260V518L302 686H375Q365 638 343 542Z" />
<glyph unicode="&#x201d;" glyph-name="quotedblright" horiz-adv-x="472" d="M106 443T128 539H65V686H211V563L169 395H96Q106 443 128 539ZM301 443T323 539H260V686H406V563L364 395H291Q301 443 323 539Z" />
<glyph unicode="&#x201e;" glyph-name="quotedblbase" horiz-adv-x="472" d="M106 -96T128 0H65V147H211V24L169 -144H96Q106 -96 128 0ZM301 -96T323 0H260V147H406V24L364 -144H291Q301 -96 323 0Z" />
<glyph unicode="&#x2022;" glyph-name="bullet" horiz-adv-x="544" d="M432 299T411 262T352 203T271 181Q227 181 191 203T133 262T111 343Q111 387 132 424T190 483T271 505Q315 505 352 484T410 425T432 343Q432 299 411 262Z" />
<glyph unicode="&#x2039;" glyph-name="guilsinglleft" horiz-adv-x="277" d="M168 163L47 337L168 511H230L141 337L230 163H168Z" />
<glyph unicode="&#x203a;" glyph-name="guilsinglright" horiz-adv-x="277" d="M47 163L136 337L47 511H109L230 337L109 163H47Z" />
</font>
</defs>
</svg>
