<?xml version="1.0" standalone="no"?>
<!DOCTYPE svg PUBLIC "-//W3C//DTD SVG 1.1//EN" "http://www.w3.org/Graphics/SVG/1.1/DTD/svg11.dtd" >
<svg xmlns="http://www.w3.org/2000/svg">
<metadata></metadata>
<defs>
<font id="news_cyclebold" horiz-adv-x="1130" >
<font-face units-per-em="2048" ascent="1638" descent="-410" />
<missing-glyph horiz-adv-x="512" />
<glyph unicode="&#xfb01;" horiz-adv-x="925" d="M-7 874v181h152v226q0 249 373 249q117 0 307 -15v-243h-243v64q-9 1 -24 1t-53.5 -3.5t-68 -12t-53.5 -31t-24 -55.5v-180h452v-1055h-214v874h-238v-874h-214v874h-152z" />
<glyph unicode="&#xfb02;" horiz-adv-x="941" d="M-7 874v181h152v226q0 249 373 249q85 2 244 -11l49 -4v-1518h-214v877h-238v-874h-214v874h-152zM359 1055h238v281q-238 5 -238 -101v-180z" />
<glyph unicode="&#xfb03;" horiz-adv-x="1308" d="M-7 874v181h152v226q0 249 373 249q85 0 140 -39q94 39 228.5 39t324.5 -15v-243h-243v64q-9 1 -24 1t-53.5 -3.5t-68 -12t-53.5 -31t-24 -55.5v-180h452v-1055h-214v874h-238v-874h-214v874h-172v-874h-214v874h-152zM359 1055h172v226q0 27 5 55q-177 0 -177 -101v-180 z" />
<glyph unicode="&#xfb04;" horiz-adv-x="1309" d="M-7 874v181h152v226q0 249 373 249q102 0 141 -39q46 23 115 27l96 6q56 3 143.5 -0.5t102 -4t47.5 -2.5t34 -2v-1518h-214v877h-238v-874h-214v874h-172v-874h-214v874h-152zM359 1055h172v226q0 27 5 55q-59 16 -118 -11t-59 -90v-180zM745 1055h238v281h-43 q-195 0 -195 -101v-180z" />
<glyph horiz-adv-x="2048" />
<glyph horiz-adv-x="2048" />
<glyph unicode="&#xd;" horiz-adv-x="2048" />
<glyph unicode=" "  horiz-adv-x="512" />
<glyph unicode="&#x09;" horiz-adv-x="512" />
<glyph unicode="&#xa0;" horiz-adv-x="512" />
<glyph unicode="!" horiz-adv-x="342" d="M48 1446h243l-37 -1100h-168zM50 0v243h244v-243h-244z" />
<glyph unicode="&#x22;" horiz-adv-x="578" d="M23 1000l80 250h-74v243h244v-197l-152 -296h-98zM334 1000l80 250h-74v243h244v-197l-152 -296h-98z" />
<glyph unicode="#" horiz-adv-x="1353" d="M139 450v202h238v242h-238v202h238v422h214v-422h158v422h214v-422h246v-202h-246v-242h246v-202h-246v-450h-214v450h-158v-450h-214v450h-238zM591 652h158v242h-158v-242z" />
<glyph unicode="$" horiz-adv-x="1225" d="M150 1130.5q0 81.5 37 160t112.5 140t179.5 87.5v47h240v-44q154 -33 244 -150q34 -45 49 -74l16 -31l-171 -90q-33 88 -138 141v-449l55 -21q152 -60 223 -140q55 -64 74 -114q35 -98 35 -172t-13 -127.5t-43.5 -109t-73.5 -98.5q-99 -100 -257 -102v-203h-240v224 q-167 43 -273 171q-25 30 -36.5 48.5l-11.5 18.5l162 105l5.5 -12.5t17 -32.5t28.5 -41q40 -51 108 -73v527q-82 18 -145.5 65t-99.5 91t-60 110.5t-24 148zM376 1127q0 -66 22 -110t81 -69v366q-103 -44 -103 -187zM719 185q147 22 147 213q0 101 -30 153t-117 85v-451z " />
<glyph unicode="%" horiz-adv-x="1075" d="M15 19l888 1565l187 -105l-910 -1554zM48 1241q0 119 84.5 203t203 84t202.5 -84t84 -203t-84 -203t-202.5 -84t-203 84t-84.5 203zM198 1241q0 -57 40 -97t97 -40t97 40t40 97t-40 97t-97 40t-97 -40t-40 -97zM479 266q0 118 84.5 202.5t203 84.5t202.5 -84.5t84 -202.5 t-84 -202.5t-202.5 -84.5t-203 84.5t-84.5 202.5zM629 266q0 -57 40 -97t97 -40t97 40t40 97t-40 97t-97 40t-97 -40t-40 -97z" />
<glyph unicode="&#x26;" horiz-adv-x="1424" d="M99 411q0 271 294 471q-33 62 -58.5 166.5t-25.5 179.5t42 149t116 122t162.5 48t164.5 -46.5t115.5 -118.5t39.5 -142.5t-18 -124t-44.5 -91.5t-72 -77.5t-84.5 -64.5l-98 -60q64 -102 174.5 -239t153.5 -175q68 135 61 327h214q0 -262 -152 -465q64 -42 197 -38 q33 1 47 1v-233q-158 0 -191 10.5t-62 22.5q-51 21 -108 78q-78 -76 -176.5 -102.5t-223 -26.5t-232.5 58t-171.5 157t-63.5 214zM313 447q0 -103 67 -186.5t170.5 -83.5t160.5 20t117 70q-36 39 -89 108l-256 345q-91 -78 -115 -106q-55 -64 -55 -167zM523 1204 q0 -146 29 -216q205 106 205 230q0 54 -30.5 99.5t-85 45.5t-86.5 -45t-32 -114z" />
<glyph unicode="'" horiz-adv-x="334" d="M44 1000l80 250h-74v243h244v-197l-152 -296h-98z" />
<glyph unicode="(" horiz-adv-x="607" d="M79 689q0 110 20 225.5t49 209t93.5 246t165.5 297.5l20 28l180 -126l-18 -28q-12 -17 -42 -69.5t-57.5 -107.5t-60 -137t-56.5 -163t-40 -180.5t-16 -194.5t16 -195q58 -355 256 -657l18 -28l-180 -126q-5 0 -69 106q-31 51 -67.5 119.5t-74 159t-68 186t-50 210.5 t-19.5 225z" />
<glyph unicode=")" horiz-adv-x="607" d="M0 -191l34 51q20 33 69.5 129t87.5 193.5t68.5 237t30.5 269.5t-30.5 269.5t-68.5 237t-87.5 193.5t-69.5 129l-34 51l180 126l38 -53q23 -35 83 -145t106 -222t83.5 -273.5t37.5 -312.5t-36 -310t-87 -279q-105 -245 -189 -366l-36 -51z" />
<glyph unicode="*" horiz-adv-x="692" d="M24 698l49 148l199 -63v203h149v-203l198 64l47 -147l-197 -62l117 -166l-118 -90l-122 174l-123 -173l-122 90l124 167z" />
<glyph unicode="+" horiz-adv-x="1006" d="M32 633v215h314v314h214v-314h313v-215h-313v-314h-214v314h-314z" />
<glyph unicode="," horiz-adv-x="444" d="M44 -296l80 250h-74v243h244v-197l-152 -296h-98z" />
<glyph unicode="-" horiz-adv-x="512" d="M0 488v181h512v-181h-512z" />
<glyph unicode="." horiz-adv-x="343" d="M51 0v243h244v-243h-244z" />
<glyph unicode="/" horiz-adv-x="1003" d="M18 -14l762 1630l194 -90l-764 -1632z" />
<glyph unicode="0" horiz-adv-x="1146" d="M63 735q0 75 6.5 147t23.5 152t43 150.5t67.5 135.5t94.5 111q116 102 290 102q229 0 360 -213q136 -221 136 -576q0 -489 -226 -670q-108 -86 -270 -86q-235 0 -372 183q-153 205 -153 564zM302 763q0 -95 5.5 -159.5t17.5 -128.5t34 -114t52 -90q64 -82 175 -82 q120 0 177 84q40 59 52.5 115t17.5 92t8 86q4 75 4 180q0 586 -259 586q-217 0 -270 -369q-14 -105 -14 -200z" />
<glyph unicode="1" horiz-adv-x="903" d="M81 1400l327 115h174v-1285h220v-230h-703v230h244v1061l-194 -57z" />
<glyph unicode="2" horiz-adv-x="1197" d="M74 0q0 137 16 192t35 101t46 86t67.5 90.5t92.5 97.5q118 109 234 184t157.5 109.5t69.5 76.5q49 71 49 200q0 69 -58 130q-62 67 -179 67q-158 0 -219 -133q-29 -66 -29 -143h-239q0 139 63.5 247.5t180 169t242 60.5t212 -35t143.5 -93q122 -123 122 -282 q0 -147 -92 -267q-75 -99 -199 -194l-74 -55q-124 -90 -247 -208.5t-131 -170.5h722v-230h-985z" />
<glyph unicode="3" horiz-adv-x="1186" d="M53 249l159 129q102 -129 245 -176q57 -19 115 -19q118 0 188 62t70 178q0 92 -72 175q-75 88 -187 88h-211v204h211q149 0 197 154q13 41 13 85q0 84 -62 144.5t-162 60.5q-177 0 -324 -158l-141 132q70 98 205 162.5t306 64.5q86 0 165 -35.5t133 -90.5 q119 -122 119 -258q0 -175 -130 -314q-32 -33 -58 -45q85 -28 159 -136q78 -113 78 -244q0 -213 -168 -340q-118 -90 -300 -90q-360 0 -548 267z" />
<glyph unicode="4" horiz-adv-x="1290" d="M116 351v195l632 969h240v-963h230v-201h-230v-351h-240v351h-632zM374 552h374v578z" />
<glyph unicode="5" horiz-adv-x="1058" d="M69 291l159 114q36 -90 112 -158q73 -64 168 -64q102 0 178 81q84 92 84 265q0 187 -106 263q-56 40 -112.5 40t-98.5 -16.5t-69 -40.5q-57 -51 -63 -89h-203v829h808v-201h-569v-321q7 14 68 27.5t135.5 13.5t158.5 -36.5t148.5 -100.5t103 -159t38.5 -230t-61.5 -261 t-173.5 -195.5t-257 -69.5q-211 0 -355 155q-73 78 -93 154z" />
<glyph unicode="6" horiz-adv-x="1180" d="M82 682q0 401 161 620t456 219q94 0 173.5 -38t123.5 -82l-100 -176q-87 95 -213 95q-154 0 -260 -148q-83 -116 -111 -321q126 118 284 118q101 0 190 -38.5t151 -103.5q133 -140 133 -337q0 -148 -74 -273q-134 -227 -416 -227q-245 0 -371.5 179.5t-126.5 512.5z M315 520q12 -162 83.5 -245.5t174.5 -83.5q96 0 174 77q84 81 84 210t-72.5 209t-184.5 80q-101 0 -172 -76q-53 -58 -83 -158z" />
<glyph unicode="7" horiz-adv-x="988" d="M67 1290v225h919v-227l-561 -1288h-251l562 1290h-669z" />
<glyph unicode="8" horiz-adv-x="1219" d="M87 394q0 169 148 302q74 65 165 109q-120 53 -186 142t-66 197t61 196.5t168.5 139.5t222.5 51t202 -32.5t147 -85.5q129 -114 129 -259q0 -155 -178 -292q-46 -37 -98 -65l60 -30q169 -87 229 -201q42 -79 42 -168t-41.5 -165.5t-109.5 -131.5q-148 -119 -320.5 -119 t-299 50.5t-201 145.5t-74.5 216zM326 406q0 -70 49 -121q99 -102 263 -102q83 0 167 60q38 28 63.5 70t25.5 89q0 171 -296 298q-110 -45 -191 -134.5t-81 -159.5zM387 1129.5q0 -62.5 60.5 -124.5t147.5 -98q244 112 244 245q0 47 -35.5 89t-88.5 65.5t-101 23.5 t-99 -24.5t-89.5 -69t-38.5 -107z" />
<glyph unicode="9" horiz-adv-x="1180" d="M90 1013q0 148 74 273q134 227 416 227q245 0 371.5 -179.5t126.5 -512.5q0 -401 -161 -620t-456 -219q-94 0 -173.5 38t-123.5 82l100 176q87 -95 213 -95q154 0 260 148q83 116 111 321q-126 -118 -284 -118q-101 0 -190 38.5t-151 103.5q-133 140 -133 337zM329 1025 q0 -129 72.5 -209t184.5 -80q101 0 172 76q53 58 83 158l4 13q-12 162 -83.5 245.5t-174.5 83.5q-96 0 -174 -77q-84 -81 -84 -210z" />
<glyph unicode=":" horiz-adv-x="343" d="M51 0v243h244v-243h-244zM51 812v243h244v-243h-244z" />
<glyph unicode=";" horiz-adv-x="342" d="M44 -296l80 250h-74v243h244v-197l-152 -296h-98zM50 812v243h244v-243h-244z" />
<glyph unicode="&#x3c;" horiz-adv-x="1029" d="M48 744l821 656l106 -128l-661 -528l661 -528l-106 -128z" />
<glyph unicode="=" horiz-adv-x="942" d="M59 440v215h824v-215h-824zM59 788v215h824v-215h-824z" />
<glyph unicode="&#x3e;" horiz-adv-x="1029" d="M48 216l661 528l-661 528l106 128l821 -656l-821 -656z" />
<glyph unicode="?" horiz-adv-x="887" d="M75 1289q70 140 159 191q81 46 188.5 46t192 -49t136 -136.5t51.5 -170t-19 -142.5t-48.5 -108.5t-66 -95.5t-72.5 -88.5t-66 -79.5q-67 -86 -67 -149v-164h-210v151q0 103 65 203q29 44 64 88l70 86q84 100 107 156.5t23 117t-47.5 122.5t-113.5 62q-120 0 -189 -145z M234 0v243h243v-243h-243z" />
<glyph unicode="@" horiz-adv-x="1620" d="M66 614q0 156 46.5 283.5t122 210.5t175.5 140q187 106 401 106t381.5 -95.5t265.5 -265t98 -375.5q0 -195 -74 -334q-36 -69 -96.5 -109.5t-157 -40.5t-177 48t-91.5 139q-74 -91 -234 -91q-173 0 -251 162q-39 80 -39 170q0 180 117.5 309t282.5 129q76 0 124 -32 l16 52h178v-615q0 -45 17.5 -60.5t31.5 -21.5q21 -9 44 -9q48 0 83.5 93.5t35.5 238t-65 270.5t-189 199t-287 73q-162 0 -309 -88q-181 -106 -237 -322q-21 -80 -21 -180.5t39.5 -200t110.5 -176t179.5 -122t212.5 -45.5q182 0 256 50l24 16l99 -135q0 -11 -41 -35.5 t-80 -41.5q-96 -40 -239.5 -40t-270.5 45t-214 120t-149 173q-119 187 -119 408zM650 592q0 -180 134 -180q52 0 105 44t61 72v257q-38 22 -84 22q-104 0 -160 -62.5t-56 -152.5z" />
<glyph unicode="A" d="M2 0l432 1515h262l432 -1515h-231l-125 439h-397l-125 -439h-248zM432 640h283l-141 489z" />
<glyph unicode="B" horiz-adv-x="1148" d="M123 0v1515h487q214 0 333 -105q115 -101 115 -257q0 -257 -186 -328q-32 -13 -75 -23q126 -24 208 -121q87 -103 87 -270q0 -238 -150 -337q-115 -74 -324 -74h-495zM362 201h256q140 0 198 66q49 55 49 163q0 89 -67 168q-71 84 -180 84h-256v-481zM362 888h246 q101 0 175 78q58 60 58 159q0 189 -233 189h-246v-426z" />
<glyph unicode="C" horiz-adv-x="1183" d="M64 760q0 96 15 189t44.5 181.5t77 163t108.5 130.5q130 119 323 119q245 0 387 -245q69 -119 93 -245v-1l-208 -56q-16 107 -38 156.5t-44 83t-48 55.5q-62 51 -140.5 51t-134.5 -35.5t-92 -93t-60 -134.5q-44 -142 -44 -320q0 -472 224 -564q48 -20 102 -20t96.5 14 t71.5 36.5t51.5 53.5t36 62.5t21.5 64.5q15 58 15 108l223 -31q-45 -192 -157 -333q-142 -176 -357 -176q-264 0 -425 251q-91 141 -125 345q-16 94 -16 190z" />
<glyph unicode="D" horiz-adv-x="1229" d="M123 0v1515h357q548 0 662 -441q36 -141 36 -297t-21.5 -263t-73.5 -203t-130 -164q-171 -147 -473 -147h-357zM362 201h144q209 0 322 151q111 150 111 395q0 467 -299 550q-61 17 -134 17h-144v-1113z" />
<glyph unicode="E" horiz-adv-x="1079" d="M123 0v1515h867v-201h-628v-419h437v-202h-437v-478h666v-215h-905z" />
<glyph unicode="F" horiz-adv-x="1041" d="M123 0v1515h867v-201h-628v-419h437v-202h-437v-693h-239z" />
<glyph unicode="G" horiz-adv-x="1262" d="M63 769q0 243 91 436q101 213 279 294q97 44 186.5 44t143 -12.5t109 -45t100.5 -84.5q99 -113 162 -329l-204 -37q-65 307 -272 307q-219 0 -307 -249q-49 -139 -49 -326q0 -450 191 -560q56 -32 119 -32t106.5 12.5t73 32t51.5 50.5t34 62t19 74q11 65 13 157h-291v202 h526v-765h-194v120q-64 -78 -140 -111q-82 -35 -189 -35t-196 43.5t-154 119.5t-113 177q-95 201 -95 455z" />
<glyph unicode="H" horiz-adv-x="1276" d="M123 0v1515h239v-619h552v619h239v-1515h-239v695h-552v-695h-239z" />
<glyph unicode="I" horiz-adv-x="437" d="M99 0v1515h239v-1515h-239z" />
<glyph unicode="J" horiz-adv-x="908" d="M2 291l141 72q38 -117 148 -168q44 -20 82.5 -20t59.5 6t36.5 14.5t27.5 24.5t20 31.5t13.5 39t8.5 42.5t5 48q2 41 2 100v1034h239v-1093q0 -364 -273 -433q-60 -15 -128.5 -15t-124 17t-92.5 41.5t-67.5 61t-46.5 64t-29 63.5q-15 39 -22 70z" />
<glyph unicode="K" horiz-adv-x="1151" d="M123 0v1515h241v-674l505 674h252l-449 -591l477 -924h-263l-367 723l-155 -204v-519h-241z" />
<glyph unicode="L" horiz-adv-x="1017" d="M123 0v1515h239v-1285h626v-230h-865z" />
<glyph unicode="M" horiz-adv-x="1478" d="M116 0v1515h324l291 -1047h10l291 1047h324v-1515h-235v1026h-9l-284 -1026h-184l-284 1026h-10v-1026h-234z" />
<glyph unicode="N" horiz-adv-x="1272" d="M116 0v1515h308l494 -930v930h238v-1515h-190l-612 1162v-1162h-238z" />
<glyph unicode="O" horiz-adv-x="1274" d="M64 752q0 75 9 151t30 154.5t52 148.5t78.5 132.5t106.5 107.5q127 97 309 97q250 0 400 -206q162 -224 162 -585q0 -368 -156 -580q-146 -198 -406 -198q-247 0 -405 199q-134 168 -170 428q-10 76 -10 151zM303 751.5q0 -54.5 4 -107.5t14.5 -112t26.5 -109t43.5 -96.5 t61.5 -79.5q77 -72 194 -72q325 0 325 578q0 471 -220 568q-48 21 -106.5 21t-108 -21t-84 -55.5t-62 -83.5t-43.5 -101t-26.5 -111.5t-14.5 -111.5t-4 -106.5z" />
<glyph unicode="P" horiz-adv-x="1151" d="M123 0v1515h517q282 0 395 -162q65 -94 65 -229q0 -240 -146 -372q-107 -95 -282 -95h-310v-657h-239zM362 859h165q154 0 244 66.5t90 189.5q0 199 -334 199h-165v-455z" />
<glyph unicode="Q" horiz-adv-x="1274" d="M64 752q0 75 9 151t30 154.5t52 148.5t78.5 132.5t106.5 107.5q127 97 309 97q250 0 400 -206q162 -224 162 -585q0 -368 -156 -580q-115 -155 -300 -189q2 -39 6 -47q6 -12 15 -21t19.5 -11t29.5 -5q24 -4 95 -4h230v-178h-141q-205 0 -245 6.5t-72.5 14.5t-46.5 18.5 t-32.5 27.5t-25 38t-14.5 51q-9 35 -11 108q-188 29 -318 192q-134 168 -170 428q-10 76 -10 151zM303 751.5q0 -54.5 4 -107.5t14.5 -112t26.5 -109t43.5 -96.5t61.5 -79.5q77 -72 194 -72q325 0 325 578q0 471 -220 568q-48 21 -106.5 21t-108 -21t-84 -55.5t-62 -83.5 t-43.5 -101t-26.5 -111.5t-14.5 -111.5t-4 -106.5z" />
<glyph unicode="R" horiz-adv-x="1121" d="M123 0v1515h509q351 0 444 -251q27 -73 27 -151t-17.5 -142t-51.5 -119q-75 -120 -221 -151l280 -701h-245l-262 657h-224v-657h-239zM362 859h253q105 0 175 57q74 61 74 187q0 211 -335 211h-167v-455z" />
<glyph unicode="S" horiz-adv-x="1041" d="M24 388l192 63q1 0 4 -15t10.5 -39.5t21 -54t39.5 -59t61 -53.5q78 -55 194 -55t170.5 57t54.5 135.5t-16 127t-56 84.5q-67 60 -232 108q-291 85 -374 263q-43 93 -43 219q0 106 75 207q131 167 372 167q191 0 313 -115q87 -81 130 -204l19 -53q9 -24 12 -31l-195 -69 q-66 210 -206 259q-35 12 -73 12q-208 0 -208 -214q0 -98 58 -150q48 -45 126 -71l48 -16q41 -14 45 -15l44 -15q171 -60 231 -106q88 -68 115 -125q54 -117 54 -247q0 -102 -58 -207q-78 -141 -247 -185q-65 -17 -142 -17t-144.5 14t-116.5 38t-90 55t-69 65.5t-49 69 t-33.5 65.5t-20.5 55t-11.5 38t-4.5 14z" />
<glyph unicode="T" horiz-adv-x="1062" d="M2 1314v201h1057v-201h-409v-1314h-239v1314h-409z" />
<glyph unicode="U" horiz-adv-x="1234" d="M123 448v1067h239v-1010q0 -253 163 -314q42 -16 94 -16t94 14t68 35t45 53.5t28 59.5t15 64q6 48 6 104v1010h244v-1067q0 -229 -151 -363q-125 -111 -348 -111q-339 0 -450 257q-47 106 -47 217z" />
<glyph unicode="V" horiz-adv-x="1104" d="M2 1515h253l297 -999l297 999h253l-450 -1515h-200z" />
<glyph unicode="W" horiz-adv-x="1614" d="M2 1515h247l222 -1017h9l218 1017h226l214 -1017h12l222 1017h240l-351 -1515h-223l-222 1057h-10l-226 -1057h-227z" />
<glyph unicode="X" horiz-adv-x="1106" d="M2 1515h244l302 -532l292 532h245l-417 -745l436 -770h-246l-302 536l-303 -536h-247l426 754z" />
<glyph unicode="Y" horiz-adv-x="1122" d="M2 1515h252l307 -573l307 573h252l-440 -814v-701h-238v701z" />
<glyph unicode="Z" horiz-adv-x="1157" d="M44 0v136l733 1172h-679v207h998v-161l-693 -1124h710v-230h-1069z" />
<glyph unicode="[" horiz-adv-x="619" d="M88 -302v1948h478v-150h-240v-1648h240v-150h-478z" />
<glyph unicode="\" horiz-adv-x="1007" d="M20 1526l194 90l762 -1630l-171 -81z" />
<glyph unicode="]" horiz-adv-x="619" d="M54 -152h240v1648h-240v150h478v-1948h-478v150z" />
<glyph unicode="^" horiz-adv-x="636" d="M69 1198l248 248l249 -249l-94 -92l-153 153l-155 -155z" />
<glyph unicode="_" horiz-adv-x="1126" d="M79 0v181h968v-181h-968z" />
<glyph unicode="`" horiz-adv-x="707" d="M154 1395l116 123l327 -338l-87 -86z" />
<glyph unicode="a" horiz-adv-x="939" d="M70 273q0 89 31.5 158.5t102.5 122.5q129 96 434 157q0 71 -4.5 87t-10 30t-13.5 21.5t-20 16.5t-28 13q-39 10 -86.5 10t-89 -14.5t-66 -32.5t-44.5 -42q-26 -32 -37 -56l-140 86q44 91 76 121.5t63 52.5t66 35q84 31 171 31t138.5 -9.5t98 -34t76.5 -65.5 q64 -89 64 -260v-552q0 -28 10.5 -79t19.5 -70h-214q-30 18 -30 93l-19 -22q-86 -92 -246 -92q-194 0 -266 137q-37 68 -37 157zM284 272q0 -59 29 -85.5t72 -26.5t64.5 5t42.5 15l37 19q16 9 36 25l29 23q8 7 26 23l18 17v247q-224 -52 -293 -112q-61 -54 -61 -150z" />
<glyph unicode="b" horiz-adv-x="1004" d="M64 0q28 64 28 143v1372h214v-530q18 27 75 57.5t135 30.5t143 -17.5t110.5 -46.5t80 -72.5t54.5 -90.5t33 -107q21 -100 21 -204t-15 -177.5t-48.5 -142t-82.5 -120.5q-108 -113 -284 -113q-146 0 -222 97q-8 -79 -16 -79h-226zM306 285q1 -1 14 -18.5t28 -32.5t38 -32 q50 -39 116.5 -39t108.5 18.5t67 48.5t40 76q26 79 26 189.5t-13 181t-33.5 111t-51.5 64.5q-50 40 -124 40q-117 0 -216 -103v-504z" />
<glyph unicode="c" horiz-adv-x="937" d="M59 520q0 314 137 447q108 106 302.5 106t304.5 -164q36 -53 50 -99l-181 -80q-8 82 -67 130q-40 32 -99 32q-233 0 -233 -363q0 -179 61 -272.5t178 -93.5q82 0 133 60q44 52 64 111l164 -72q-23 -89 -98 -169q-105 -111 -269 -111q-447 0 -447 538z" />
<glyph unicode="d" horiz-adv-x="993" d="M59 508q0 381 188 501q100 64 256 64q77 0 133.5 -30.5t74.5 -57.5v530h214v-1372q0 -70 28 -143h-226q-3 5 -6 14l-10 65q-76 -97 -222 -97q-252 0 -366 233q-64 130 -64 293zM273 511q0 -203 66 -281q56 -67 166 -67q116 0 192 103q13 18 14 19v504q-99 103 -216 103 q-122 0 -175 -105q-47 -92 -47 -276z" />
<glyph unicode="e" horiz-adv-x="936" d="M59 528.5q0 110.5 26 214.5t67 165.5t99 99.5q99 65 233 65q126 0 220 -75q168 -136 168 -494v-33h-599q0 -202 107 -272q55 -36 115.5 -36t100.5 15t64 34t44 44q27 35 37 60l136 -88q-74 -129 -158 -184q-93 -62 -204.5 -62t-190 29t-128 77t-81 116.5t-44 141 t-12.5 183zM283 652h370q0 78 -27 135q-52 105 -144 105q-55 0 -96.5 -24.5t-62.5 -63.5q-40 -73 -40 -152z" />
<glyph unicode="f" horiz-adv-x="591" d="M2 874v181h152v226q0 249 353 249q74 0 79 -15v-179h-68q-81 -1 -106 -19q-44 -33 -44 -82v-180h218v-181h-218v-874h-214v874h-152z" />
<glyph unicode="g" horiz-adv-x="1008" d="M21 -163q0 132 192 205q-60 8 -101 52.5t-41 105.5q0 128 154 195q-52 27 -96 118.5t-44 193.5t57.5 188t155.5 132t219 46q56 0 115.5 -21.5t84.5 -43.5q86 62 184 66q14 1 46 1.5t46 0.5v-180h-4q-36 4 -63 4q-46 0 -67 -11q-10 -5 -9.5 -10t11.5 -36t17 -48 q17 -56 17 -122.5t-28.5 -138.5t-81 -125t-131 -83t-158.5 -30t-131 20q-9 -9 -33 -25q-47 -32 -47 -67q0 -47 151 -65q28 -4 35 -4.5t36 -1t45 -1t51.5 -4.5t67.5 -11q172 -39 220 -82q100 -91 100 -217q0 -290 -492 -290q-205 0 -337 68q-141 72 -141 221zM234 -166.5 q0 -23.5 9 -40t22 -27t35.5 -18.5t41.5 -11.5t48 -5.5q40 -3 85.5 -3t66 0.5t54.5 2.5t56 6.5t48 12.5t40 20q36 28 36 69t-34 68t-86 39.5t-104 19.5t-98.5 11t-58.5 9q-105 -42 -124 -64.5t-28 -43.5t-9 -44.5zM299 689.5q0 -98.5 51.5 -155t152.5 -56.5q129 0 168 140 q10 35 10 70.5t-10 69.5t-30 65q-45 69 -137 69t-148.5 -52t-56.5 -150.5z" />
<glyph unicode="h" horiz-adv-x="997" d="M120 0v1515h214v-572q130 130 270 130q126 0 209 -66q89 -71 89 -216v-791h-214v735q0 72 -43.5 114.5t-103.5 42.5t-119 -35.5t-88 -70.5v-786h-214z" />
<glyph unicode="i" horiz-adv-x="434" d="M91 1147v243h243v-243h-243zM106 0v1055h214v-1055h-214z" />
<glyph unicode="j" horiz-adv-x="398" d="M-60 -165q100 0 144 32.5t44 154.5v1033h214v-1062q0 -170 -55 -238q-21 -26 -38.5 -42.5t-49.5 -28t-54 -17.5t-63 -9q-53 -4 -134 -4zM114 1147v243h242v-243h-242z" />
<glyph unicode="k" horiz-adv-x="925" d="M124 0v1515h214v-853l304 393h260l-306 -390l324 -665h-242l-230 476l-110 -139v-337h-214z" />
<glyph unicode="l" horiz-adv-x="451" d="M124 -3v1518h214v-1518h-214z" />
<glyph unicode="m" horiz-adv-x="1595" d="M110 0v1055h214v-112q130 130 289 130q94 0 166 -37t106 -112q149 149 296 149q127 0 219 -66q99 -71 99 -216v-791h-214v735q0 71 -52 114t-113.5 43t-120.5 -35.5t-88 -70.5v-786h-214v735q0 72 -43.5 114.5t-104 42.5t-129.5 -36.5t-96 -69.5v-786h-214z" />
<glyph unicode="n" horiz-adv-x="988" d="M110 0v1055h214v-112q58 58 121.5 94t148.5 36q130 0 214 -70.5t84 -211.5v-791h-214v735q0 72 -43.5 114.5t-103.5 42.5t-119 -35.5t-88 -70.5v-786h-214z" />
<glyph unicode="o" horiz-adv-x="982" d="M59 528q0 250 115.5 397.5t317.5 147.5q134 0 232 -68q199 -139 199 -478q0 -423 -264 -519q-73 -27 -166.5 -27t-167.5 27t-123 75t-82 118q-61 130 -61 327zM273 535q0 -61 6 -110t21.5 -98t39.5 -85q54 -80 152 -80q217 0 217 365q0 214 -64 297q-52 68 -153 68 q-185 0 -213 -243q-6 -53 -6 -114z" />
<glyph unicode="p" horiz-adv-x="1029" d="M119 -410v1465h214v-79q76 97 222 97q252 0 366 -233q64 -130 64 -293q0 -381 -188 -501q-100 -64 -256 -64q-76 0 -133 30.5t-75 57.5v-480h-214zM333 266q99 -103 216 -103q122 0 175 105q47 92 47 276q0 203 -66 281q-56 67 -166 67q-115 0 -192 -103q-13 -18 -14 -19 v-504z" />
<glyph unicode="q" horiz-adv-x="1009" d="M59 547q0 163 64 293q114 233 366 233q146 0 222 -97l16 79h198v-1465h-214v480q-18 -27 -74.5 -57.5t-133.5 -30.5q-156 0 -256 64q-188 120 -188 501zM273 544q0 -184 47 -276q53 -105 175 -105q117 0 216 103v504q-1 1 -14 19q-76 103 -192 103q-110 0 -166 -67 q-66 -78 -66 -281z" />
<glyph unicode="r" horiz-adv-x="651" d="M110 0v1055h214v-145q4 5 18 26l24 36q74 101 244 101q18 0 36 -3v-179q-182 -3 -262 -101q-36 -44 -60 -113v-677h-214z" />
<glyph unicode="s" horiz-adv-x="890" d="M67 212l148 90q35 -50 65 -80q71 -70 179 -70q87 0 124 36q34 33 34 100q0 76 -49 114q-44 33 -87 45l-94 27q-163 46 -235 124q-73 79 -73 209q0 111 91 186q96 80 275 80q161 0 277 -110q50 -47 63 -79l-124 -98q-70 85 -140 105q-36 11 -94.5 11t-100 -30t-41.5 -88 q0 -67 59 -104q52 -33 105 -49l90 -25q212 -60 263 -203q21 -58 21 -137.5t-49.5 -145.5t-130.5 -102t-163.5 -36t-136 10t-103.5 35q-97 49 -173 185z" />
<glyph unicode="t" horiz-adv-x="614" d="M18 874v181h157v385h214v-385h221v-181h-221v-566q0 -85 30.5 -116.5t102.5 -31.5q29 0 58.5 4t29.5 5v-151q-54 -25 -83.5 -32t-72 -7t-63 1t-50 7t-51 16.5t-44.5 30.5t-38 48q-33 64 -33 166v626h-157z" />
<glyph unicode="u" horiz-adv-x="998" d="M119 264v791h214v-735q0 -72 43.5 -114.5t103 -42.5t119 35.5t88.5 70.5v786h214v-1055h-214v112q-130 -130 -270 -130q-126 0 -209 66q-89 71 -89 216z" />
<glyph unicode="v" horiz-adv-x="901" d="M6 1055h226l217 -744l221 744h226l-324 -1055h-248z" />
<glyph unicode="w" horiz-adv-x="1318" d="M6 1055h222l184 -684l156 684h184l156 -682l183 682h223l-288 -1055h-218l-148 652l-150 -652h-218z" />
<glyph unicode="x" horiz-adv-x="899" d="M2 0l326 536l-326 519h230l195 -311l204 311h229l-321 -490l355 -565h-230l-220 350l-211 -350h-231z" />
<glyph unicode="y" horiz-adv-x="903" d="M2 1055h238l222 -633l198 633h238l-352 -1087q-53 -164 -88 -216t-63.5 -82t-61.5 -48q-69 -39 -181 -39q-58 0 -129 11l-9 1l10 199q37 -16 97.5 -16t97 16t59 41t38.5 55.5t24 61.5q15 61 16 112z" />
<glyph unicode="z" horiz-adv-x="795" d="M2 0v137l474 737h-420v181h716v-120l-470 -741h488v-194h-788z" />
<glyph unicode="{" horiz-adv-x="789" d="M123 581v188q114 1 162 61.5t48 183.5q0 50 -39 114q-14 23 -26.5 68.5t-12.5 108t15 117.5q64 248 453 248v-171q-151 0 -222 -75q-31 -34 -46.5 -71t-15.5 -67t20 -77q58 -139 58 -219q0 -118 -64 -207t-164 -108q100 -19 164 -108t64 -188t-58 -238q-20 -47 -20 -77 t16 -67q60 -146 268 -146v-171q-205 0 -318 67q-53 32 -87 79t-48.5 102t-14.5 143t51 171q27 44 27 94q0 123 -48 183.5t-162 61.5z" />
<glyph unicode="|" horiz-adv-x="358" d="M65 -141v1704h239v-1704h-239z" />
<glyph unicode="}" horiz-adv-x="789" d="M66 -149q207 0 268 146q16 37 16 67t-20 76q-58 140 -58 239t64 188t164 108q-100 19 -164 108t-64 207q0 80 58 220q20 46 20 76t-15.5 67t-46.5 71q-70 75 -222 75v171q366 0 444 -220q24 -66 24 -137t-12 -116.5t-27 -68.5q-39 -62 -39 -114q0 -123 48.5 -183.5 t161.5 -61.5v-188q-113 -1 -161.5 -61.5t-48.5 -183.5q0 -52 27 -95q51 -80 51 -177.5t-23.5 -163.5t-76.5 -116q-109 -104 -368 -104v171z" />
<glyph unicode="~" horiz-adv-x="797" d="M47 1179q23 91 89.5 145t121.5 54t94 -14.5t63 -31.5q64 -46 112 -46q38 0 55 23q22 31 35 65l134 -62q-71 -200 -223 -200q-84 0 -149.5 45t-105 45t-59.5 -21t-37 -62z" />
<glyph unicode="&#xa1;" horiz-adv-x="342" d="M48 1034v243h244v-243h-244zM51 -169l37 1100h168l38 -1100h-243z" />
<glyph unicode="&#xa2;" horiz-adv-x="996" d="M99 502q0 69 5 120t17 112t36 114t58 100q73 99 204 115v223h214v-218q62 -13 111.5 -48t75.5 -77q56 -87 67 -147l5 -27l-172 -40q0 67 -46 122q-17 21 -41 33v-711q41 18 71.5 60.5t39.5 76.5l10 33l158 -57l-8 -28q-45 -141 -160 -222q-51 -37 -111 -49v-228h-214v233 q-132 16 -205 119q-72 100 -94 212q-21 110 -21 179zM313 523.5q0 -151.5 19.5 -233.5t86.5 -107v691q-66 -29 -86 -114t-20 -236.5z" />
<glyph unicode="&#xa3;" horiz-adv-x="1118" d="M24 586v220h134v124q0 270 47 378q51 116 141 163q112 60 290 60q34 0 87.5 -6t54.5 -10v-181l-102 3q-161 0 -218 -62q-34 -38 -44.5 -73.5t-15.5 -62t-7 -64.5q-5 -64 -5 -159v-110h278v-220h-278v-98q0 -236 -30 -265h314q158 0 238 77q19 17 30 42l135 -150 q0 -1 -3 -8t-8 -16t-20.5 -30t-34.5 -37t-53.5 -36t-75.5 -33q-99 -32 -236 -32h-536v132q16 39 34 149t18 185v120h-134z" />
<glyph unicode="&#xa4;" horiz-adv-x="780" d="M45 494l102 102q-41 66 -41 149q0 82 41 148l-102 102l93 93l101 -101q68 45 154 45q83 0 148 -41l99 99l95 -95l-98 -98q43 -67 43 -152q0 -87 -45 -155l98 -98l-93 -93l-99 99q-66 -40 -148 -40q-84 0 -151 43l-102 -102zM256 745q0 -57 40 -97t97 -40t97 40t40 97 t-40 97t-97 40t-97 -40t-40 -97z" />
<glyph unicode="&#xa5;" horiz-adv-x="1122" d="M4 1515h254l303 -565l303 565h254l-447 -827h245v-149h-240v-117h240v-149h-240v-273h-230v273h-220v149h220v117h-220v149h225z" />
<glyph unicode="&#xa6;" horiz-adv-x="368" d="M65 -141v761h239v-761h-239zM65 794v769h239v-769h-239z" />
<glyph unicode="&#xa7;" horiz-adv-x="892" d="M68 212l148 90q35 -50 65 -80q71 -70 179 -70q87 0 124 36q34 33 34 100q0 76 -49 114q-44 33 -87 45l-94 27q-163 46 -235 124q-73 79 -73 209q0 76 39 132q-39 68 -39 164q0 111 91 186q96 80 275 80q161 0 277 -110q50 -47 63 -79l-124 -98q-70 85 -140 105 q-35 11 -94 11t-100.5 -30t-41.5 -88q0 -67 59 -104q52 -33 105 -49l90 -25q212 -60 263 -203q21 -58 21 -135q0 -70 -35 -128q8 -16 14 -33q21 -58 21 -137.5t-49.5 -145.5t-130.5 -102t-163 -36t-136 10t-104 35q-97 49 -173 185zM286 784q0 -67 59 -104q52 -33 105 -49 l90 -25q42 -12 78 -27q-1 34 -6 52q-7 22 -16 37.5t-27.5 29.5t-32.5 22t-40 17.5t-42 14.5l-66 18q-55 15 -100 35q-2 -10 -2 -21z" />
<glyph unicode="&#xa8;" horiz-adv-x="655" d="M16 1203v243h242v-243h-242zM396 1203v243h242v-243h-242z" />
<glyph unicode="&#xa9;" horiz-adv-x="1098" d="M59 742q0 99 39 190t105 156.5t156.5 104.5t190 39t190 -39t156.5 -104.5t104.5 -156.5t38.5 -190t-38.5 -190t-104.5 -156.5t-156.5 -104.5t-190 -39t-190 39t-156.5 104.5t-105 156.5t-39 190zM164 744q0 -105 51.5 -194t140.5 -140.5t193.5 -51.5t193.5 51.5 t140.5 140.5t51.5 194t-51.5 194t-140.5 140.5t-193.5 51.5t-193.5 -51.5t-140.5 -140.5t-51.5 -194zM333 742q0 117 54 201q57 90 168 90q114 0 167 -114q17 -38 23 -68l-89 -21q-12 72 -58 103q-21 14 -51.5 14t-55.5 -30q-47 -56 -47 -175q0 -206 112 -206q66 0 99 83 q7 18 8 32l94 -12q-50 -189 -202 -189q-72 0 -123 42q-99 79 -99 250z" />
<glyph unicode="&#xaa;" horiz-adv-x="554" d="M100 1168q0 85 56 127t192 68q0 62 -30 72q-16 5 -39 5t-41 -6.5t-29 -14.5t-19 -18q-12 -14 -16 -24l-61 38q27 57 65 79q43 25 113 25t110 -34.5t40 -126.5v-240q0 -39 13 -65h-93q-13 8 -13 40q-49 -49 -101.5 -49t-80 12t-40.5 32q-26 37 -26 80zM193 1178 q0 -55 53 -55q39 0 102 55v108q-80 -18 -117.5 -41.5t-37.5 -66.5z" />
<glyph unicode="&#xab;" horiz-adv-x="1022" d="M110 1276l296 298l102 -108l-188 -190l190 -192l-106 -106zM478 1276l296 298l102 -108l-188 -190l190 -192l-106 -106z" />
<glyph unicode="&#xac;" horiz-adv-x="1201" d="M79 667v182h976v-510h-180v328h-796z" />
<glyph unicode="&#xad;" d="M101 666v149h928v-149h-928z" />
<glyph unicode="&#xae;" horiz-adv-x="1098" d="M59 742q0 99 39 190t105 156.5t156.5 104.5t190 39t190 -39t156.5 -104.5t104.5 -156.5t38.5 -190t-38.5 -190t-104.5 -156.5t-156.5 -104.5t-190 -39t-190 39t-156.5 104.5t-105 156.5t-39 190zM164 744q0 -105 51.5 -194t140.5 -140.5t193.5 -51.5t193.5 51.5 t140.5 140.5t51.5 194t-51.5 194t-140.5 140.5t-193.5 51.5t-193.5 -51.5t-140.5 -140.5t-51.5 -194zM379 492v510h217q113 0 147 -104q8 -24 8 -55t-22.5 -79t-66.5 -64l90 -208h-116l-93 203h-61v-203h-103zM482 787h86q70 0 70 65q0 32 -24.5 43.5t-78.5 11.5h-53v-120z " />
<glyph unicode="&#xaf;" horiz-adv-x="807" d="M99 1203v149h609v-149h-609z" />
<glyph unicode="&#xb0;" horiz-adv-x="798" d="M112 1241q0 119 84.5 203t203 84t202.5 -84t84 -203t-84 -203t-202.5 -84t-203 84t-84.5 203zM262 1241q0 -57 40 -97t97 -40t97 40t40 97t-40 97t-97 40t-97 -40t-40 -97z" />
<glyph unicode="&#xb1;" horiz-adv-x="915" d="M35 189v215h841v-215h-841zM35 799v215h314v314h214v-314h313v-215h-313v-314h-214v314h-314z" />
<glyph unicode="&#xb2;" horiz-adv-x="501" d="M95 1055q0 77 36 127q41 55 105 96.5t78 62.5t14 51.5t-19 49.5t-56.5 19t-54.5 -26t-17 -58h-73q0 64 42.5 104.5t107.5 40.5t104 -38t39 -75.5t-9.5 -61t-28.5 -43.5q-28 -31 -70 -61.5t-79 -66t-39 -51.5h219v-70h-299z" />
<glyph unicode="&#xb3;" horiz-adv-x="510" d="M101 1127l48 39q51 -59 98 -59q90 0 90 73q0 29 -22.5 54t-56.5 25h-64v62h64q31 0 47.5 22t16.5 49t-18.5 45.5t-61 18.5t-87.5 -48l-42 40q49 69 155 69q52 0 89 -37t37 -76t-19.5 -71.5t-37.5 -40.5q27 -9 49.5 -43t22.5 -80t-37.5 -84.5t-104.5 -38.5q-108 0 -166 81 z" />
<glyph unicode="&#xb4;" horiz-adv-x="665" d="M111 1181l327 338l116 -123l-356 -301z" />
<glyph unicode="&#xb5;" horiz-adv-x="1022" d="M119 -410v1465h214v-735q0 -72 43.5 -114.5t103 -42.5t119 35.5t88.5 70.5v786h214v-1055h-214v112q-130 -130 -270 -130q-44 0 -84 8v-400h-214z" />
<glyph unicode="&#xb6;" horiz-adv-x="1140" d="M53 1061q0 50 5 89t18.5 83t34 83.5t53.5 76.5t75 63q91 59 228 59h558v-1515h-228v611h-138v-611h-228v611q-204 0 -315 209q-63 119 -63 241zM291 1077q0 -28 3 -56t12.5 -63t23.5 -63q35 -65 101 -67v471q-126 -12 -138 -169q-2 -25 -2 -53zM659 813h138v501h-138 v-501z" />
<glyph unicode="&#xb7;" horiz-adv-x="343" d="M51 744v243h244v-243h-244z" />
<glyph unicode="&#xb8;" horiz-adv-x="340" d="M7 -195q125 0 125 46q0 80 -56 149h119q96 -96 96 -215q0 -83 -112 -117q-66 -20 -172 -15v152z" />
<glyph unicode="&#xb9;" horiz-adv-x="458" d="M117 1480l99 35h53v-391h67v-69h-213v69h74v322l-59 -17z" />
<glyph unicode="&#xba;" horiz-adv-x="567" d="M96 1286q0 109 49.5 173.5t137.5 64.5t138.5 -65t50.5 -173q0 -238 -188 -238t-188 238zM189 1286q0 -159 95 -159t95 159q0 77 -20.5 118t-74 41t-74.5 -41t-21 -118z" />
<glyph unicode="&#xbb;" horiz-adv-x="955" d="M110 1468l106 106l294 -298l-296 -298l-102 108l188 190zM478 1468l106 106l294 -298l-296 -298l-102 108l188 190z" />
<glyph unicode="&#xbc;" horiz-adv-x="1153" d="M58 1458l163 57h87v-640h109v-115h-350v115h121v528l-96 -28zM115 -47l748 1601h158l-748 -1601h-158zM552 175v97l315 483h119v-480h115v-100h-115v-175h-119v175h-315zM681 275h186v288z" />
<glyph unicode="&#xbd;" horiz-adv-x="1171" d="M58 1458l163 57h87v-640h109v-115h-350v115h121v528l-96 -28zM115 -47l748 1601h158l-748 -1601h-158zM611 -13q0 89 16.5 126.5t36 69t47.5 59.5q66 68 151 123.5t108.5 90t23.5 84.5t-31.5 81t-77 31t-71 -13.5t-38.5 -36.5q-24 -41 -24 -88h-119q0 105 70.5 171.5 t177 66.5t169.5 -61.5t63 -142.5q0 -116 -130 -218q-20 -16 -67 -50.5t-108.5 -93t-65.5 -84.5h360v-115h-491z" />
<glyph unicode="&#xbe;" horiz-adv-x="1231" d="M62 902l79 64q72 -97 179 -97q58 0 93.5 30.5t35.5 83t-37.5 94.5t-91.5 42h-105v102h105q50 0 77.5 36t27.5 80.5t-31 74.5t-81 30q-87 0 -161 -78l-71 65q34 49 101.5 81t153 32t147 -61t61.5 -124.5t-32.5 -117.5t-61.5 -67q43 -14 80.5 -70t37.5 -108t-15 -89.5 t-43 -68.5q-62 -67 -175 -67q-180 0 -273 133zM194 -47l748 1601h158l-748 -1601h-158zM631 175v97l315 483h119v-480h115v-100h-115v-175h-119v175h-315zM760 275h186v288z" />
<glyph unicode="&#xbf;" horiz-adv-x="860" d="M75 355.5q0 82.5 18.5 142.5t48.5 108.5t66 95.5t72.5 88.5t66.5 79.5q67 86 67 149v164h210v-151q0 -103 -66 -203q-29 -44 -64 -88l-70 -86q-84 -100 -106.5 -156.5t-22.5 -117t47.5 -122.5t113.5 -62q120 0 189 145l157 -105q-71 -140 -159 -191q-81 -46 -188.5 -46 t-192 49t-136 136.5t-51.5 170zM400 1283v243h243v-243h-243z" />
<glyph unicode="&#xc0;" d="M2 0l432 1515h262l432 -1515h-231l-125 439h-397l-125 -439h-248zM238 1966l116 123l327 -338l-87 -86zM432 640h283l-141 489z" />
<glyph unicode="&#xc1;" d="M2 0l432 1515h262l432 -1515h-231l-125 439h-397l-125 -439h-248zM432 640h283l-141 489zM488 1751l327 338l116 -123l-356 -301z" />
<glyph unicode="&#xc2;" d="M2 0l432 1515h262l432 -1515h-231l-125 439h-397l-125 -439h-248zM323 1760l248 248l249 -249l-94 -92l-153 153l-155 -155zM432 640h283l-141 489z" />
<glyph unicode="&#xc3;" d="M2 0l432 1515h262l432 -1515h-231l-125 439h-397l-125 -439h-248zM182 1732q23 91 89.5 145t121.5 54t94 -14.5t63 -31.5q64 -46 112 -46q38 0 55 23q22 31 35 65l134 -62q-71 -200 -223 -200q-84 0 -149.5 45t-105 45t-59.5 -21t-37 -62zM432 640h283l-141 489z" />
<glyph unicode="&#xc4;" d="M2 0l432 1515h262l432 -1515h-231l-125 439h-397l-125 -439h-248zM255 1665v243h242v-243h-242zM432 640h283l-141 489zM635 1665v243h242v-243h-242z" />
<glyph unicode="&#xc5;" d="M2 0l422 1481q-50 21 -91 62q-84 85 -84.5 203t84 202.5t203 84.5t202.5 -84.5t84 -202.5t-84 -203q-19 -19 -40 -34l430 -1509h-231l-125 439h-397l-125 -439h-248zM398 1746q0 -57 40 -97t97 -40t97 40t40 97t-40 97t-97 40t-97 -40t-40 -97zM432 640h283l-141 489z " />
<glyph unicode="&#xc6;" horiz-adv-x="1741" d="M2 0l432 1515h1120v-201h-628v-419h437v-202h-437v-478h666v-215h-905v439h-307l-125 -439h-253zM437 640h250v674h-57z" />
<glyph unicode="&#xc7;" horiz-adv-x="1183" d="M64 760q0 96 15 189t44.5 181.5t77 163t108.5 130.5q130 119 323 119q245 0 387 -245q69 -119 93 -245v-1l-208 -56q-16 107 -38 156.5t-44 83t-48 55.5q-62 51 -140.5 51t-134.5 -35.5t-92 -93t-60 -134.5q-44 -142 -44 -320q0 -472 224 -564q48 -20 102 -20t96.5 14 t71.5 36.5t51.5 53.5t36 62.5t21.5 64.5q15 58 15 108l223 -31q-45 -192 -157 -333q-119 -148 -290 -171q89 -94 89 -208q0 -84 -112 -118q-65 -20 -172 -14v152q125 0 125 46q0 74 -49 140q-228 22 -373 248q-91 141 -125 345q-16 94 -16 190z" />
<glyph unicode="&#xc8;" horiz-adv-x="1079" d="M123 0v1515h867v-201h-628v-419h437v-202h-437v-478h666v-215h-905zM230 1966l116 123l327 -338l-87 -86z" />
<glyph unicode="&#xc9;" horiz-adv-x="1079" d="M123 0v1515h867v-201h-628v-419h437v-202h-437v-478h666v-215h-905zM480 1751l327 338l116 -123l-356 -301z" />
<glyph unicode="&#xca;" horiz-adv-x="1079" d="M123 0v1515h867v-201h-628v-419h437v-202h-437v-478h666v-215h-905zM314 1760l248 248l249 -249l-94 -92l-153 153l-155 -155z" />
<glyph unicode="&#xcb;" horiz-adv-x="1079" d="M123 0v1515h867v-201h-628v-419h437v-202h-437v-478h666v-215h-905zM247 1665v243h242v-243h-242zM627 1665v243h242v-243h-242z" />
<glyph unicode="&#xcc;" horiz-adv-x="437" d="M-109 1966l116 123l327 -338l-87 -86zM99 0v1515h239v-1515h-239z" />
<glyph unicode="&#xcd;" horiz-adv-x="437" d="M99 0v1515h239v-1515h-239zM141 1751l327 338l116 -123l-356 -301z" />
<glyph unicode="&#xce;" horiz-adv-x="437" d="M-24 1760l248 248l249 -249l-94 -92l-153 153l-155 -155zM99 0v1515h239v-1515h-239z" />
<glyph unicode="&#xcf;" horiz-adv-x="437" d="M-92 1665v243h242v-243h-242zM99 0v1515h239v-1515h-239zM288 1665v243h242v-243h-242z" />
<glyph unicode="&#xd0;" horiz-adv-x="1214" d="M9 652v181h103v682h357q549 0 661 -441q37 -143 37 -298t-22 -262t-73.5 -203t-129.5 -164q-170 -147 -473 -147h-357v652h-103zM351 201h144q103 0 183 38t125.5 95t74.5 134q50 128 50 248.5t-11.5 198t-41.5 153t-77 128.5q-105 118 -303 118h-144v-481h291v-181h-291 v-451z" />
<glyph unicode="&#xd1;" horiz-adv-x="1272" d="M116 0v1515h308l494 -930v930h238v-1515h-190l-612 1162v-1162h-238zM253 1732q23 91 89.5 145t121.5 54t94 -14.5t63 -31.5q64 -46 112 -46q38 0 55 23q22 31 35 65l134 -62q-71 -200 -223 -200q-84 0 -149.5 45t-105 45t-59.5 -21t-37 -62z" />
<glyph unicode="&#xd2;" horiz-adv-x="1274" d="M64 752q0 75 9 151t30 154.5t52 148.5t78.5 132.5t106.5 107.5q127 97 309 97q250 0 400 -206q162 -224 162 -585q0 -368 -156 -580q-146 -198 -406 -198q-247 0 -405 199q-134 168 -170 428q-10 76 -10 151zM303 751.5q0 -54.5 4 -107.5t14.5 -112t26.5 -109t43.5 -96.5 t61.5 -79.5q77 -72 194 -72q325 0 325 578q0 471 -220 568q-48 21 -106.5 21t-108 -21t-84 -55.5t-62 -83.5t-43.5 -101t-26.5 -111.5t-14.5 -111.5t-4 -106.5zM322 1966l116 123l327 -338l-87 -86z" />
<glyph unicode="&#xd3;" horiz-adv-x="1274" d="M64 752q0 75 9 151t30 154.5t52 148.5t78.5 132.5t106.5 107.5q127 97 309 97q250 0 400 -206q162 -224 162 -585q0 -368 -156 -580q-146 -198 -406 -198q-247 0 -405 199q-134 168 -170 428q-10 76 -10 151zM303 751.5q0 -54.5 4 -107.5t14.5 -112t26.5 -109t43.5 -96.5 t61.5 -79.5q77 -72 194 -72q325 0 325 578q0 471 -220 568q-48 21 -106.5 21t-108 -21t-84 -55.5t-62 -83.5t-43.5 -101t-26.5 -111.5t-14.5 -111.5t-4 -106.5zM572 1751l327 338l116 -123l-356 -301z" />
<glyph unicode="&#xd4;" horiz-adv-x="1274" d="M64 752q0 75 9 151t30 154.5t52 148.5t78.5 132.5t106.5 107.5q127 97 309 97q250 0 400 -206q162 -224 162 -585q0 -368 -156 -580q-146 -198 -406 -198q-247 0 -405 199q-134 168 -170 428q-10 76 -10 151zM303 751.5q0 -54.5 4 -107.5t14.5 -112t26.5 -109t43.5 -96.5 t61.5 -79.5q77 -72 194 -72q325 0 325 578q0 471 -220 568q-48 21 -106.5 21t-108 -21t-84 -55.5t-62 -83.5t-43.5 -101t-26.5 -111.5t-14.5 -111.5t-4 -106.5zM406 1760l248 248l249 -249l-94 -92l-153 153l-155 -155z" />
<glyph unicode="&#xd5;" horiz-adv-x="1274" d="M64 752q0 75 9 151t30 154.5t52 148.5t78.5 132.5t106.5 107.5q127 97 309 97q250 0 400 -206q162 -224 162 -585q0 -368 -156 -580q-146 -198 -406 -198q-247 0 -405 199q-134 168 -170 428q-10 76 -10 151zM266 1732q23 91 89.5 145t121.5 54t94 -14.5t63 -31.5 q64 -46 112 -46q38 0 55 23q22 31 35 65l134 -62q-71 -200 -223 -200q-84 0 -149.5 45t-105 45t-59.5 -21t-37 -62zM303 751.5q0 -54.5 4 -107.5t14.5 -112t26.5 -109t43.5 -96.5t61.5 -79.5q77 -72 194 -72q325 0 325 578q0 471 -220 568q-48 21 -106.5 21t-108 -21 t-84 -55.5t-62 -83.5t-43.5 -101t-26.5 -111.5t-14.5 -111.5t-4 -106.5z" />
<glyph unicode="&#xd6;" horiz-adv-x="1274" d="M64 752q0 75 9 151t30 154.5t52 148.5t78.5 132.5t106.5 107.5q127 97 309 97q250 0 400 -206q162 -224 162 -585q0 -368 -156 -580q-146 -198 -406 -198q-247 0 -405 199q-134 168 -170 428q-10 76 -10 151zM303 751.5q0 -54.5 4 -107.5t14.5 -112t26.5 -109t43.5 -96.5 t61.5 -79.5q77 -72 194 -72q325 0 325 578q0 471 -220 568q-48 21 -106.5 21t-108 -21t-84 -55.5t-62 -83.5t-43.5 -101t-26.5 -111.5t-14.5 -111.5t-4 -106.5zM339 1665v243h242v-243h-242zM719 1665v243h242v-243h-242z" />
<glyph unicode="&#xd7;" horiz-adv-x="999" d="M-6 436l304 304l-304 304l152 152l304 -304l304 304l152 -151l-304 -304l302 -304l-152 -152l-302 304l-304 -304z" />
<glyph unicode="&#xd8;" horiz-adv-x="1261" d="M57 745.5q0 81.5 9 157.5t30 154.5t52 148.5t78.5 132.5t106.5 107.5q127 97 309 97q164 0 279 -82l73 127l185 -107l-109 -189q91 -149 122 -366q12 -87 12 -185.5t-15.5 -202t-56 -208.5t-102 -182t-161.5 -125.5t-214 -48.5t-201 34q-54 20 -99 51l-79 -137l-183 109 l110 190l-9 14q-49 76 -78.5 164t-44 176.5t-14.5 170zM296 781q0 -94 6 -155.5t20 -129.5q5 -26 11 -49l481 830q-70 65 -174 65q-138 0 -216 -103q-77 -100 -102 -233q-26 -131 -26 -225zM458 236q71 -61 182 -61q137 0 209.5 97t94.5 225q21 129 21 219.5t-3.5 141.5 t-12.5 111q-7 45 -17 86z" />
<glyph unicode="&#xd9;" horiz-adv-x="1234" d="M123 448v1067h239v-1010q0 -253 163 -314q42 -16 94 -16t94 14t68 35t45 53.5t28 59.5t15 64q6 48 6 104v1010h244v-1067q0 -229 -151 -363q-125 -111 -348 -111q-339 0 -450 257q-47 106 -47 217zM294 1966l116 123l327 -338l-87 -86z" />
<glyph unicode="&#xda;" horiz-adv-x="1234" d="M123 448v1067h239v-1010q0 -253 163 -314q42 -16 94 -16t94 14t68 35t45 53.5t28 59.5t15 64q6 48 6 104v1010h244v-1067q0 -229 -151 -363q-125 -111 -348 -111q-339 0 -450 257q-47 106 -47 217zM544 1751l327 338l116 -123l-356 -301z" />
<glyph unicode="&#xdb;" horiz-adv-x="1234" d="M123 448v1067h239v-1010q0 -253 163 -314q42 -16 94 -16t94 14t68 35t45 53.5t28 59.5t15 64q6 48 6 104v1010h244v-1067q0 -229 -151 -363q-125 -111 -348 -111q-339 0 -450 257q-47 106 -47 217zM379 1760l248 248l249 -249l-94 -92l-153 153l-155 -155z" />
<glyph unicode="&#xdc;" horiz-adv-x="1234" d="M123 448v1067h239v-1010q0 -253 163 -314q42 -16 94 -16t94 14t68 35t45 53.5t28 59.5t15 64q6 48 6 104v1010h244v-1067q0 -229 -151 -363q-125 -111 -348 -111q-339 0 -450 257q-47 106 -47 217zM311 1665v243h242v-243h-242zM691 1665v243h242v-243h-242z" />
<glyph unicode="&#xdd;" horiz-adv-x="1122" d="M2 1515h252l307 -573l307 573h252l-440 -814v-701h-238v701zM484 1751l327 338l116 -123l-356 -301z" />
<glyph unicode="&#xde;" horiz-adv-x="1151" d="M125 0v1515h240v-297h282q264 0 387 -203q65 -108 65 -232q0 -235 -148 -366q-112 -99 -304 -99h-282v-318h-240zM365 519h138q256 0 329 137q27 51 27 125.5t-47 130.5q-89 105 -309 105h-138v-498z" />
<glyph unicode="&#xdf;" horiz-adv-x="1202" d="M125 0v882q0 245 13.5 306.5t29 112t38.5 79.5t57.5 62t78.5 50q105 39 216 39t191 -40.5t129 -110t49 -161t-47 -168.5t-141 -121q-97 -46 -112 -66q-30 -39 -30 -71t8 -51.5t19 -33.5t32.5 -28t38.5 -22.5t49 -19.5t51 -16l56 -16q212 -59 263 -203q21 -58 21 -137.5 t-49.5 -145.5t-130.5 -102t-163 -36t-135.5 10t-104.5 35q-96 49 -173 185l148 90q36 -50 66 -80q70 -70 178 -70q87 0 124 36q34 33 34 100q0 76 -49 114q-44 33 -87 46l-94 26q-163 46 -235 124q-73 79 -73 190.5t52.5 175t167 126t114.5 139.5q0 52 -40.5 80t-92 28 t-80.5 -6.5t-51.5 -15t-39 -30t-28 -39t-19 -55.5t-12 -65.5t-6.5 -83.5q-3 -79 -3 -206v-836h-228z" />
<glyph unicode="&#xe0;" horiz-adv-x="939" d="M70 273q0 89 31.5 158.5t102.5 122.5q129 96 434 157q0 71 -4.5 87t-10 30t-13.5 21.5t-20 16.5t-28 13q-39 10 -86.5 10t-89 -14.5t-66 -32.5t-44.5 -42q-26 -32 -37 -56l-140 86q44 91 76 121.5t63 52.5t66 35q84 31 171 31t138.5 -9.5t98 -34t76.5 -65.5 q64 -89 64 -260v-552q0 -28 10.5 -79t19.5 -70h-214q-30 18 -30 93l-19 -22q-86 -92 -246 -92q-194 0 -266 137q-37 68 -37 157zM168 1496l116 123l327 -338l-87 -86zM284 272q0 -59 29 -85.5t72 -26.5t64.5 5t42.5 15l37 19q16 9 36 25l29 23q8 7 26 23l18 17v247 q-224 -52 -293 -112q-61 -54 -61 -150z" />
<glyph unicode="&#xe1;" horiz-adv-x="939" d="M70 273q0 89 31.5 158.5t102.5 122.5q129 96 434 157q0 71 -4.5 87t-10 30t-13.5 21.5t-20 16.5t-28 13q-39 10 -86.5 10t-89 -14.5t-66 -32.5t-44.5 -42q-26 -32 -37 -56l-140 86q44 91 76 121.5t63 52.5t66 35q84 31 171 31t138.5 -9.5t98 -34t76.5 -65.5 q64 -89 64 -260v-552q0 -28 10.5 -79t19.5 -70h-214q-30 18 -30 93l-19 -22q-86 -92 -246 -92q-194 0 -266 137q-37 68 -37 157zM284 272q0 -59 29 -85.5t72 -26.5t64.5 5t42.5 15l37 19q16 9 36 25l29 23q8 7 26 23l18 17v247q-224 -52 -293 -112q-61 -54 -61 -150z M463 1227l327 338l116 -123l-356 -301z" />
<glyph unicode="&#xe2;" horiz-adv-x="939" d="M70 273q0 89 31.5 158.5t102.5 122.5q129 96 434 157q0 71 -4.5 87t-10 30t-13.5 21.5t-20 16.5t-28 13q-39 10 -86.5 10t-89 -14.5t-66 -32.5t-44.5 -42q-26 -32 -37 -56l-140 86q44 91 76 121.5t63 52.5t66 35q84 31 171 31t138.5 -9.5t98 -34t76.5 -65.5 q64 -89 64 -260v-552q0 -28 10.5 -79t19.5 -70h-214q-30 18 -30 93l-19 -22q-86 -92 -246 -92q-194 0 -266 137q-37 68 -37 157zM255 1254l248 248l249 -249l-94 -92l-153 153l-155 -155zM284 272q0 -59 29 -85.5t72 -26.5t64.5 5t42.5 15l37 19q16 9 36 25l29 23q8 7 26 23 l18 17v247q-224 -52 -293 -112q-61 -54 -61 -150z" />
<glyph unicode="&#xe3;" horiz-adv-x="939" d="M70 273q0 89 31.5 158.5t102.5 122.5q129 96 434 157q0 71 -4.5 87t-10 30t-13.5 21.5t-20 16.5t-28 13q-39 10 -86.5 10t-89 -14.5t-66 -32.5t-44.5 -42q-26 -32 -37 -56l-140 86q44 91 76 121.5t63 52.5t66 35q84 31 171 31t138.5 -9.5t98 -34t76.5 -65.5 q64 -89 64 -260v-552q0 -28 10.5 -79t19.5 -70h-214q-30 18 -30 93l-19 -22q-86 -92 -246 -92q-194 0 -266 137q-37 68 -37 157zM135 1252q23 91 89.5 145t121.5 54t94 -14.5t63 -31.5q64 -46 112 -46q38 0 55 23q22 31 35 65l134 -62q-71 -200 -223 -200q-84 0 -149.5 45 t-105 45t-59.5 -21t-37 -62zM284 272q0 -59 29 -85.5t72 -26.5t64.5 5t42.5 15l37 19q16 9 36 25l29 23q8 7 26 23l18 17v247q-224 -52 -293 -112q-61 -54 -61 -150z" />
<glyph unicode="&#xe4;" horiz-adv-x="939" d="M70 273q0 89 31.5 158.5t102.5 122.5q129 96 434 157q0 71 -4.5 87t-10 30t-13.5 21.5t-20 16.5t-28 13q-39 10 -86.5 10t-89 -14.5t-66 -32.5t-44.5 -42q-26 -32 -37 -56l-140 86q44 91 76 121.5t63 52.5t66 35q84 31 171 31t138.5 -9.5t98 -34t76.5 -65.5 q64 -89 64 -260v-552q0 -28 10.5 -79t19.5 -70h-214q-30 18 -30 93l-19 -22q-86 -92 -246 -92q-194 0 -266 137q-37 68 -37 157zM170 1188v243h242v-243h-242zM284 272q0 -59 29 -85.5t72 -26.5t64.5 5t42.5 15l37 19q16 9 36 25l29 23q8 7 26 23l18 17v247 q-224 -52 -293 -112q-61 -54 -61 -150zM550 1188v243h242v-243h-242z" />
<glyph unicode="&#xe5;" horiz-adv-x="939" d="M70 273q0 89 31.5 158.5t102.5 122.5q129 96 434 157q0 71 -4.5 87t-10 30t-13.5 21.5t-20 16.5t-28 13q-39 10 -86.5 10t-89 -14.5t-66 -32.5t-44.5 -42q-26 -32 -37 -56l-140 86q44 91 76 121.5t63 52.5t66 35q84 31 171 31t138.5 -9.5t98 -34t76.5 -65.5 q64 -89 64 -260v-552q0 -28 10.5 -79t19.5 -70h-214q-30 18 -30 93l-19 -22q-86 -92 -246 -92q-194 0 -266 137q-37 68 -37 157zM226 1412q0 119 84.5 203t203 84t202.5 -84t84 -203t-84 -203t-202.5 -84t-203 84t-84.5 203zM284 272q0 -59 29 -85.5t72 -26.5t64.5 5 t42.5 15l37 19q16 9 36 25l29 23q8 7 26 23l18 17v247q-224 -52 -293 -112q-61 -54 -61 -150zM376 1412q0 -57 40 -97t97 -40t97 40t40 97t-40 97t-97 40t-97 -40t-40 -97z" />
<glyph unicode="&#xe6;" horiz-adv-x="1540" d="M57 274.5q0 90.5 30.5 161t101.5 123.5q128 94 436 152q0 71 -4.5 87t-10 30t-13.5 21.5t-20 16.5t-28 13q-39 10 -86.5 10t-89 -14.5t-66 -32.5t-44.5 -42q-27 -32 -37 -56l-140 86q44 91 75.5 121.5t63 52.5t66.5 35q84 31 191 31q205 0 287 -103q105 106 283 106 q197 0 300 -165q97 -154 91 -437h-602q0 -203 107 -272q55 -36 115.5 -36t100.5 15t64 34t44 45q26 32 37 59l136 -88q-71 -127 -158 -185q-92 -61 -215 -61q-263 0 -375 196l-8 -13t-15 -22l-21 -27q-13 -18 -28 -32l-35 -30q-90 -75 -230 -75q-194 0 -267 137 q-36 68 -36 158.5zM271 288q0 -128 122 -128q45 0 76 15.5t47 24t36 24.5l29 23q8 7 26 23l18 17v247q-224 -52 -293 -112q-61 -54 -61 -134zM851 654h370q0 78 -27 134q-52 104 -144 104q-123 0 -174 -116q-25 -58 -25 -122z" />
<glyph unicode="&#xe7;" horiz-adv-x="937" d="M59 520q0 314 137 447q108 106 302.5 106t304.5 -164q36 -53 50 -99l-181 -80q-8 82 -67 130q-40 32 -99 32q-233 0 -233 -363q0 -179 61 -272.5t178 -93.5q82 0 133 60q44 52 64 111l164 -72q-23 -89 -98 -169q-83 -88 -202 -106q90 -94 89 -208q0 -84 -111 -118 q-66 -20 -173 -14v152q126 0 126 46q0 74 -49 139q-396 30 -396 536z" />
<glyph unicode="&#xe8;" horiz-adv-x="936" d="M59 528.5q0 110.5 26 214.5t67 165.5t99 99.5q99 65 233 65q126 0 220 -75q176 -142 168 -527h-599q0 -202 107 -272q55 -36 115.5 -36t100.5 15t64 34t44 44q27 35 37 60l136 -88q-74 -129 -158 -184q-93 -62 -204.5 -62t-190 29t-128 77t-81 116.5t-44 141t-12.5 183z M157 1496l116 123l327 -338l-87 -86zM283 652h370q0 78 -27 135q-52 105 -144 105q-55 0 -96.5 -24.5t-62.5 -63.5q-40 -73 -40 -152z" />
<glyph unicode="&#xe9;" horiz-adv-x="936" d="M59 528.5q0 110.5 26 214.5t67 165.5t99 99.5q99 65 233 65q126 0 220 -75q176 -142 168 -527h-599q0 -202 107 -272q55 -36 115.5 -36t100.5 15t64 34t44 44q27 35 37 60l136 -88q-74 -129 -158 -184q-93 -62 -204.5 -62t-190 29t-128 77t-81 116.5t-44 141t-12.5 183z M283 652h370q0 78 -27 135q-52 105 -144 105q-55 0 -96.5 -24.5t-62.5 -63.5q-40 -73 -40 -152zM407 1281l327 338l116 -123l-356 -301z" />
<glyph unicode="&#xea;" horiz-adv-x="936" d="M59 528.5q0 110.5 26 214.5t67 165.5t99 99.5q99 65 233 65q126 0 220 -75q176 -142 168 -527h-599q0 -202 107 -272q55 -36 115.5 -36t100.5 15t64 34t44 44q27 35 37 60l136 -88q-74 -129 -158 -184q-93 -62 -204.5 -62t-190 29t-128 77t-81 116.5t-44 141t-12.5 183z M242 1290l248 248l249 -249l-94 -92l-153 153l-155 -155zM283 652h370q0 78 -27 135q-52 105 -144 105q-55 0 -96.5 -24.5t-62.5 -63.5q-40 -73 -40 -152z" />
<glyph unicode="&#xeb;" horiz-adv-x="936" d="M59 528.5q0 110.5 26 214.5t67 165.5t99 99.5q99 65 233 65q126 0 220 -75q176 -142 168 -527h-599q0 -202 107 -272q55 -36 115.5 -36t100.5 15t64 34t44 44q27 35 37 60l136 -88q-74 -129 -158 -184q-93 -62 -204.5 -62t-190 29t-128 77t-81 116.5t-44 141t-12.5 183z M174 1195v243h242v-243h-242zM283 652h370q0 78 -27 135q-52 105 -144 105q-55 0 -96.5 -24.5t-62.5 -63.5q-40 -73 -40 -152zM554 1195v243h242v-243h-242z" />
<glyph unicode="&#xec;" horiz-adv-x="527" d="M-123 1496l116 123l327 -338l-87 -86zM97 0v1055h214v-1055h-214z" />
<glyph unicode="&#xed;" horiz-adv-x="527" d="M97 0v1055h214v-1055h-214zM127 1281l327 338l116 -123l-356 -301z" />
<glyph unicode="&#xee;" horiz-adv-x="527" d="M-39 1290l248 248l249 -249l-94 -92l-153 153l-155 -155zM97 0v1055h214v-1055h-214z" />
<glyph unicode="&#xef;" horiz-adv-x="527" d="M-106 1195v243h242v-243h-242zM97 0v1055h214v-1055h-214zM274 1195v243h242v-243h-242z" />
<glyph unicode="&#xf0;" horiz-adv-x="1015" d="M59 528q0 250 115.5 397.5t316.5 147.5q73 0 102 -8t54 -17q-4 24 -29 89t-37 85l-179 -102l-70 119l182 106q-40 53 -97.5 107t-73.5 63h207q36 -19 101 -92l161 92l70 -119l-141 -82q167 -275 180 -674q2 -59 2 -145t-14.5 -163.5t-47.5 -143t-83 -110.5 q-105 -96 -287 -96q-265 0 -369 219q-63 131 -63 327zM273 531.5q0 -61.5 6.5 -112.5t22.5 -99t40 -82q53 -75 149 -75q218 0 218 364q0 209 -64 295q-52 70 -154 70q-188 0 -213 -248q-5 -51 -5 -112.5z" />
<glyph unicode="&#xf1;" horiz-adv-x="988" d="M110 0v1055h214v-112q58 58 121.5 94t148.5 36q130 0 214 -70.5t84 -211.5v-791h-214v735q0 72 -43.5 114.5t-103.5 42.5t-119 -35.5t-88 -70.5v-786h-214zM118 1262q23 91 89.5 145t121.5 54t94 -14.5t63 -31.5q64 -46 112 -46q38 0 55 23q22 31 35 65l134 -62 q-71 -200 -223 -200q-84 0 -149.5 45t-105 45t-59.5 -21t-37 -62z" />
<glyph unicode="&#xf2;" horiz-adv-x="982" d="M59 528q0 250 115.5 397.5t317.5 147.5q134 0 232 -68q199 -139 199 -478q0 -423 -264 -519q-73 -27 -166.5 -27t-167.5 27t-123 75t-82 118q-61 130 -61 327zM165 1496l116 123l327 -338l-87 -86zM273 535q0 -61 6 -110t21.5 -98t39.5 -85q54 -80 152 -80q217 0 217 365 q0 214 -64 297q-52 68 -153 68q-185 0 -213 -243q-6 -53 -6 -114z" />
<glyph unicode="&#xf3;" horiz-adv-x="982" d="M59 528q0 250 115.5 397.5t317.5 147.5q134 0 232 -68q199 -139 199 -478q0 -423 -264 -519q-73 -27 -166.5 -27t-167.5 27t-123 75t-82 118q-61 130 -61 327zM273 535q0 -61 6 -110t21.5 -98t39.5 -85q54 -80 152 -80q217 0 217 365q0 214 -64 297q-52 68 -153 68 q-185 0 -213 -243q-6 -53 -6 -114zM415 1281l327 338l116 -123l-356 -301z" />
<glyph unicode="&#xf4;" horiz-adv-x="982" d="M59 528q0 250 115.5 397.5t317.5 147.5q134 0 232 -68q199 -139 199 -478q0 -423 -264 -519q-73 -27 -166.5 -27t-167.5 27t-123 75t-82 118q-61 130 -61 327zM250 1290l248 248l249 -249l-94 -92l-153 153l-155 -155zM273 535q0 -61 6 -110t21.5 -98t39.5 -85 q54 -80 152 -80q217 0 217 365q0 214 -64 297q-52 68 -153 68q-185 0 -213 -243q-6 -53 -6 -114z" />
<glyph unicode="&#xf5;" horiz-adv-x="982" d="M59 528q0 250 115.5 397.5t317.5 147.5q134 0 232 -68q199 -139 199 -478q0 -423 -264 -519q-73 -27 -166.5 -27t-167.5 27t-123 75t-82 118q-61 130 -61 327zM109 1262q23 91 89.5 145t121.5 54t94 -14.5t63 -31.5q64 -46 112 -46q38 0 55 23q22 31 35 65l134 -62 q-71 -200 -223 -200q-84 0 -149.5 45t-105 45t-59.5 -21t-37 -62zM273 535q0 -61 6 -110t21.5 -98t39.5 -85q54 -80 152 -80q217 0 217 365q0 214 -64 297q-52 68 -153 68q-185 0 -213 -243q-6 -53 -6 -114z" />
<glyph unicode="&#xf6;" horiz-adv-x="982" d="M59 528q0 250 115.5 397.5t317.5 147.5q134 0 232 -68q199 -139 199 -478q0 -423 -264 -519q-73 -27 -166.5 -27t-167.5 27t-123 75t-82 118q-61 130 -61 327zM182 1195v243h242v-243h-242zM273 535q0 -61 6 -110t21.5 -98t39.5 -85q54 -80 152 -80q217 0 217 365 q0 214 -64 297q-52 68 -153 68q-185 0 -213 -243q-6 -53 -6 -114zM562 1195v243h242v-243h-242z" />
<glyph unicode="&#xf7;" horiz-adv-x="909" d="M32 633v215h841v-215h-841zM332 250v244h244v-244h-244zM334 984v244h244v-244h-244z" />
<glyph unicode="&#xf8;" horiz-adv-x="1073" d="M59 536.5q0 241.5 115.5 389t317.5 147.5q87 0 161 -30l48 85l186 -107l-66 -114q102 -146 102 -380q0 -423 -264 -519q-73 -27 -172.5 -27t-179.5 34l-46 -79l-186 107l67 116q-83 136 -83 377.5zM273 563q0 -102 10 -160l277 480q-30 9 -74 9t-82.5 -17.5t-63 -48 t-39.5 -77.5q-28 -84 -28 -186zM404 183q39 -21 89 -21t89.5 22t63 57.5t38.5 84.5q25 86 25 192.5t-12 172.5z" />
<glyph unicode="&#xf9;" horiz-adv-x="998" d="M119 264v791h214v-735q0 -72 43.5 -114.5t103 -42.5t119 35.5t88.5 70.5v786h214v-1055h-214v112q-130 -130 -270 -130q-126 0 -209 66q-89 71 -89 216zM183 1496l116 123l327 -338l-87 -86z" />
<glyph unicode="&#xfa;" horiz-adv-x="998" d="M119 264v791h214v-735q0 -72 43.5 -114.5t103 -42.5t119 35.5t88.5 70.5v786h214v-1055h-214v112q-130 -130 -270 -130q-126 0 -209 66q-89 71 -89 216zM433 1281l327 338l116 -123l-356 -301z" />
<glyph unicode="&#xfb;" horiz-adv-x="998" d="M119 264v791h214v-735q0 -72 43.5 -114.5t103 -42.5t119 35.5t88.5 70.5v786h214v-1055h-214v112q-130 -130 -270 -130q-126 0 -209 66q-89 71 -89 216zM267 1290l248 248l249 -249l-94 -92l-153 153l-155 -155z" />
<glyph unicode="&#xfc;" horiz-adv-x="998" d="M119 264v791h214v-735q0 -72 43.5 -114.5t103 -42.5t119 35.5t88.5 70.5v786h214v-1055h-214v112q-130 -130 -270 -130q-126 0 -209 66q-89 71 -89 216zM200 1195v243h242v-243h-242zM580 1195v243h242v-243h-242z" />
<glyph unicode="&#xfd;" horiz-adv-x="903" d="M2 1055h238l222 -633l198 633h238l-352 -1087q-53 -164 -88 -216t-63.5 -82t-61.5 -48q-105 -59 -310 -28l-9 1l10 199q37 -16 97.5 -16t97 16t59 41t38.5 55.5t24 61.5q15 61 16 112zM373 1281l327 338l116 -123l-356 -301z" />
<glyph unicode="&#xfe;" horiz-adv-x="1015" d="M119 -409v1924h214v-550q13 23 52 52q76 56 163 56t156.5 -31t117.5 -82.5t83 -119.5q66 -132 66 -293q0 -289 -134 -445q-103 -120 -283 -120q-54 0 -106.5 19t-81.5 40t-33 34v-484h-214zM333 231q56 -68 159 -68q152 0 214 114q51 91 51 267q0 250 -142 322 q-52 26 -102 26t-75 -7.5t-45 -22.5q-31 -23 -60 -57v-574z" />
<glyph unicode="&#xff;" horiz-adv-x="903" d="M2 1055h238l222 -633l198 633h238l-352 -1087q-53 -164 -88 -216t-63.5 -82t-61.5 -48q-105 -59 -310 -28l-9 1l10 199q37 -16 97.5 -16t97 16t59 41t38.5 55.5t24 61.5q15 61 16 112zM140 1195v243h242v-243h-242zM520 1195v243h242v-243h-242z" />
<glyph unicode="&#x152;" horiz-adv-x="1729" d="M63 752q0 75 9 149.5t30 150.5t52 143t78.5 126.5t106.5 101.5q126 92 309 92h993v-201h-628v-419h437v-202h-437v-478h666v-215h-1031q-248 0 -405 189q-135 161 -170 414q-10 74 -10 149zM302 753q0 -438 235 -521q49 -17 109 -17h128v1099h-128q-167 0 -256 -149 q-88 -150 -88 -412z" />
<glyph unicode="&#x153;" horiz-adv-x="1586" d="M59 528q0 250 115.5 397.5t318 147.5t319.5 -153q108 153 322 153q197 0 300 -165q97 -154 91 -437h-602q0 -203 107 -272q55 -36 115.5 -36t100.5 15t64 34t44 45q26 32 37 59l136 -88q-71 -127 -157 -185q-93 -61 -216 -61q-224 0 -337 140q-109 -141 -325 -141 q-269 0 -372 220q-61 130 -61 327zM273 535q0 -61 6 -110t21.5 -98t39.5 -85q54 -80 152 -80q217 0 217 365q0 214 -64 297q-52 68 -153 68q-185 0 -213 -243q-6 -53 -6 -114zM933 654h370q0 78 -27 134q-52 104 -144 104q-123 0 -174 -116q-25 -58 -25 -122z" />
<glyph unicode="&#x178;" horiz-adv-x="1122" d="M2 1515h252l307 -573l307 573h252l-440 -814v-701h-238v701zM250 1654v243h242v-243h-242zM630 1654v243h242v-243h-242z" />
<glyph unicode="&#x2c6;" horiz-adv-x="636" d="M68 1229l248 248l249 -249l-94 -92l-153 153l-155 -155z" />
<glyph unicode="&#x2dc;" horiz-adv-x="452" d="M-382 186q23 91 89.5 145t121.5 54t94 -14.5t63 -31.5q64 -46 112 -46q38 0 55 23q22 31 35 65l134 -62q-71 -200 -223 -200q-84 0 -149.5 45t-105 45t-59.5 -21t-37 -62z" />
<glyph unicode="&#x2000;" horiz-adv-x="1044" />
<glyph unicode="&#x2001;" horiz-adv-x="2089" />
<glyph unicode="&#x2002;" horiz-adv-x="1044" />
<glyph unicode="&#x2003;" horiz-adv-x="2089" />
<glyph unicode="&#x2004;" horiz-adv-x="696" />
<glyph unicode="&#x2005;" horiz-adv-x="522" />
<glyph unicode="&#x2006;" horiz-adv-x="348" />
<glyph unicode="&#x2007;" horiz-adv-x="348" />
<glyph unicode="&#x2008;" horiz-adv-x="261" />
<glyph unicode="&#x2009;" horiz-adv-x="417" />
<glyph unicode="&#x200a;" horiz-adv-x="116" />
<glyph unicode="&#x2010;" horiz-adv-x="512" d="M0 488v181h512v-181h-512z" />
<glyph unicode="&#x2011;" horiz-adv-x="512" d="M0 488v181h512v-181h-512z" />
<glyph unicode="&#x2012;" horiz-adv-x="512" d="M0 488v181h512v-181h-512z" />
<glyph unicode="&#x2013;" horiz-adv-x="1024" d="M0 488v181h1024v-181h-1024z" />
<glyph unicode="&#x2014;" horiz-adv-x="2048" d="M0 488v181h2048v-181h-2048z" />
<glyph unicode="&#x2019;" horiz-adv-x="334" d="M44 1000l80 250h-74v243h244v-197l-152 -296h-98z" />
<glyph unicode="&#x201c;" horiz-adv-x="578" d="M70 1296v150h150v-150h-65l87 -250h-44q-3 3 -52 98t-76 152zM335 1296v150h150v-150h-65l87 -250h-44q-3 3 -52 98t-76 152z" />
<glyph unicode="&#x201d;" horiz-adv-x="578" d="M23 1000l80 250h-74v243h244v-197l-152 -296h-98zM334 1000l80 250h-74v243h244v-197l-152 -296h-98z" />
<glyph unicode="&#x201e;" horiz-adv-x="578" d="M25 -47l80 250h-74v243h244v-197l-152 -296h-98zM336 -47l80 250h-74v243h244v-197l-152 -296h-98z" />
<glyph unicode="&#x2022;" horiz-adv-x="507" d="M92 675.5q0 64.5 46.5 112.5t113 48t115 -49t48.5 -112t-48.5 -112.5t-115.5 -49.5t-113 49t-46 113.5z" />
<glyph unicode="&#x2026;" horiz-adv-x="1011" d="M56 0v243h244v-243h-244zM390 0v243h244v-243h-244zM724 0v243h244v-243h-244z" />
<glyph unicode="&#x202f;" horiz-adv-x="417" />
<glyph unicode="&#x2039;" horiz-adv-x="1029" d="M48 744l821 656l106 -128l-661 -528l661 -528l-106 -128z" />
<glyph unicode="&#x203a;" horiz-adv-x="1029" d="M48 216l661 528l-661 528l106 128l821 -656l-821 -656z" />
<glyph unicode="&#x205f;" horiz-adv-x="522" />
<glyph unicode="&#x20ac;" horiz-adv-x="1375" d="M19 525v149h116q-3 43 -3 86q0 34 2 68h-115v149h133q14 78 39 153q30 89 77.5 163.5t108.5 130.5q130 119 323 119q218 0 353 -193q99 -141 127 -297v-1l-208 -56q-16 107 -38 156.5t-44 83t-49 55.5q-62 51 -140.5 51t-134 -35.5t-91.5 -93t-60 -134.5 q-15 -49 -25 -102h376v-149h-394q-1 -34 -1 -69q0 -44 2 -85h393v-149h-378q45 -264 207 -330q48 -20 102 -20t96.5 14t71.5 36.5t51.5 53.5t36 62.5t21.5 64.5q15 58 15 108l223 -31q-45 -192 -157 -333q-142 -176 -357 -176q-264 0 -426 251q-80 125 -116 300h-137z" />
<glyph unicode="&#x2122;" horiz-adv-x="906" d="M87 1326v63h304v-63h-117v-391h-70v391h-117zM435 933v455h101l90 -327l92 327h101v-455h-70v347l-97 -347h-50l-97 348v-348h-70z" />
<glyph unicode="&#x25fc;" horiz-adv-x="1055" d="M0 0v1055h1055v-1055h-1055z" />
</font>
</defs>
</svg>
